Уважаемые гости сайта! Добро Пожаловать на наш торрент трекер,где Вы можете бесплатно скачать любой Софт,Фильмы,Музыку и многое другое! А так же постоянно ведется набор модераторов и релизеров. Зарегистрируйтесь сейчас, чтобы получить доступ ко всем функциям. После регистрации или входа на сайт вы сможете создавать темы, отвечать на сообщения и скачивать файлы.

Навигация по Торрент раздачам и Форум и Стол заказов и Группы

 Печень, или История одного стартапа (Иван Снежкин) [2019, Комедия, криминал, драма, WEB-DL 1080p] iTunes

Главная  Кинофильмы  Зарубежные кинофильмы  HD
Статистика раздачи
Нет
 
     
 
 
 
Автор Сообщение
  • kisel ®
  • Не в сети

    Автор темы

  • 7467
  • Пол: Мужской

  • Стаж: 5 месяцев 18 дней

  • Сообщений: 86

  • Провайдер: UzOnline UzOnline

  • Карма: 0


  • Нет нарушения:

  • Награды: Нет
  • Создавать темы 06-Май-2021 08:28

    Печень, или История одного стартапа
    -Оригинальное название: Печень, или История одного стартапа
    Год выхода: 2019
    Жанр: Комедия, криминал, драма-Режиссер: Иван Снежкин
    В ролях: Даниил Вахрушев, Евгений Егоров, Мурад Ахмедов, Сергей Маковецкий, Евгения Добровольская, Александр Обласов, Валерий Кухарешин, Светлана Письмиченко, Константин Мурзенко, Валерий Скляров-О фильме: 1990-е. Три друга Вова, Мамед и Лёха учатся в школе и мечтают, как и все в России в это время, открыть собственный бизнес. Но для начала нужны деньги. Всё, вроде бы, складывалось хорошо, но их не допустили до выпускных экзаменов. Его величество случай в образе районного полукриминального авторитета Костика приходит на помощь начинающим предпринимателям. У Костика сгнила печень - нужна новая. Юные бизнесмены достают вожделенный орган, но только с ним, с этим органом, не все так просто.- -Страна: Россия / ВГИК-Дебют
    Продолжительность: 01:30:34
    Перевод: Оригинальное | iTunes-Файл
    Качество: WEB-DL 1080p
    Формат: MKV
    Видео: MPEG-4 AVC, 1920x800, 4553 Kb/s, 24000 fps
    Аудио: Russian: 48 kHz, AC3 Dolby Digital, 3/2 (L, C, R, l, r) + LFE ch, ~384 Kbps
    Субтитры: Нет
    Дополнительно: Сохранены оригинальные чаптеры.-

    MI

    General
    Unique ID : 216192177061729480367743973211174096230 (0xA2A51947FA5602A69DDDF96903CC4D66)
    Complete name : D:\Pechen.ili.Istoriya.odnogo.startapa.2019.WEB-DL.1080p.ELEKTRI4KA.UNIONGANG.mkv
    Format : Matroska
    Format version : Version 4
    File size : 3.12 GiB
    Duration : 1 h 30 min
    Overall bit rate : 4 939 kb/s
    Movie name : Pechen.ili.Istoriya.odnogo.startapa.2019.WEB-DL.1080p.ELEKTRI4KA.UNIONGANG
    Encoded date : UTC 2021-05-05 18:21:19
    Writing application : mkvmerge v8.3.0 ('Over the Horizon') 32bit
    Writing library : libebml v1.3.1 + libmatroska v1.4.2
    Video
    ID : 1
    Format : AVC
    Format/Info : Advanced Video Codec
    Format profile : High@L4
    Format settings : CABAC / 5 Ref Frames
    Format settings, CABAC : Yes
    Format settings, Reference : 5 frames
    Codec ID : V_MPEG4/ISO/AVC
    Duration : 1 h 30 min
    Bit rate : 4 553 kb/s
    Width : 1 920 pixels
    Height : 800 pixels
    Display aspect ratio : 2.40:1
    Frame rate mode : Constant
    Frame rate : 24.000 FPS
    Color space : YUV
    Chroma subsampling : 4:2:0
    Bit depth : 8 bits
    Scan type : Progressive
    Bits/(Pixel*Frame) : 0.124
    Stream size : 2.88 GiB (92%)
    Language : English
    Default : Yes
    Forced : No
    Color range : Limited
    Color primaries : BT.709
    Transfer characteristics : BT.709
    Matrix coefficients : BT.709
    Audio
    ID : 2
    Format : AC-3
    Format/Info : Audio Coding 3
    Commercial name : Dolby Digital
    Codec ID : A_AC3
    Duration : 1 h 30 min
    Bit rate mode : Constant
    Bit rate : 384 kb/s
    Channel(s) : 6 channels
    Channel layout : L R C LFE Ls Rs
    Sampling rate : 48.0 kHz
    Frame rate : 31.250 FPS (1536 SPF)
    Compression mode : Lossy
    Stream size : 249 MiB (8%)
    Title : Original (iTunes)
    Language : Russian
    Service kind : Complete Main
    Default : Yes
    Forced : No
    Menu
    00:00:00.000 : en:Глава 1
    00:06:52.208 : en:Глава 2
    00:12:27.833 : en:Глава 3
    00:17:28.041 : en:Глава 4
    00:23:03.791 : en:Глава 5
    00:28:59.624 : en:Глава 6
    00:36:45.707 : en:Глава 7
    00:44:43.665 : en:Глава 8
    00:51:22.165 : en:Глава 9
    00:57:28.540 : en:Глава 10
    01:02:44.498 : en:Глава 11
    01:10:36.248 : en:Глава 12
    01:17:40.289 : en:Глава 13
    01:22:29.164 : en:Глава 14
    Показать сообщения:    
    Главная  Кинофильмы  Зарубежные кинофильмы  HD

    Текущее время: 18-Июн 18:58

    Часовой пояс: UTC + 5



    Вы не можете начинать темы
    Вы не можете отвечать на сообщения
    Вы не можете редактировать свои сообщения
    Вы не можете удалять свои сообщения
    Вы не можете голосовать в опросах
    Вы не можете прикреплять файлы к сообщениям
    Вы не можете скачивать файлы