Уважаемые гости сайта! Добро Пожаловать на наш торрент трекер,где Вы можете бесплатно скачать любой Софт,Фильмы,Музыку и многое другое! А так же постоянно ведется набор модераторов и релизеров. Зарегистрируйтесь сейчас, чтобы получить доступ ко всем функциям. После регистрации или входа на сайт вы сможете создавать темы, отвечать на сообщения и скачивать файлы.

Навигация по Торрент раздачам и Форум и Стол заказов и Группы

 Майор Гром: Чумной Доктор (Олег Трофим) [2021, Приключения, боевик, криминал, детектив, WEB-DL 1080p]

Главная  Кинофильмы  Зарубежные кинофильмы  HD
Статистика раздачи
Скачал: [ 1 ]
 
     
 
 
 
Автор Сообщение
  • kisel ®
  • Не в сети

    Автор темы

  • 7467
  • Пол: Мужской

  • Стаж: 5 месяцев 18 дней

  • Сообщений: 86

  • Провайдер: UzOnline UzOnline

  • Карма: 0


  • Нет нарушения:

  • Награды: Нет
  • Создавать темы 05-Май-2021 21:05

    Майор Гром: Чумной Доктор«Кто твой герой?»- Информация о фильме
    Название: Майор Гром: Чумной Доктор
    Год выхода: 2021
    Жанр: Приключения, боевик, криминал, детектив-Режиссер: Олег Трофим
    В ролях: Тихон Жизневский, Любовь Аксёнова, Алексей Маклаков, Михаил Евланов, Александр Сетейкин, Сергей Горошко, Дмитрий Чеботарёв, Олег Чугунов, Антон Богданов, Юрий Насонов, Ойсель Море Деспайгне, Кристина Ибадуллаева, Владимир Дикун, Дмитрий Лиманов, Эльдар Мурсалов, Михаил Новиков, Евгений Катаев, Александр Какуев, Владислав Шкерин, Алексей Коршунов, Владислав Спирин, Никита Кологривый, Игорь Захаров, Владимир Лысенко, Алексей Синицин, Алина Недобитко, Николай Пинский, Григорий Сергеев, Игорь Киселёв, Андрей Мясников, Ангелина Тимофеева, Рафаэль Хисматулин-О фильме:
    Майор полиции Игорь Гром известен всему Санкт-Петербургу пробивным характером и непримиримой позицией по отношению к преступникам всех мастей. Неимоверная сила, аналитический склад ума и неподкупность — всё это делает майора Грома идеальным полицейским. Но всё резко меняется с появлением человека в маске Чумного Доктора. Заявив, что его город «болен чумой беззакония», он принимается за «лечение», убивая людей, которые в своё время избежали наказания при помощи денег и влияния. Общество взбудоражено. Полиция бессильна. Игорь впервые сталкивается с трудностями в расследовании, от итогов которого может зависеть судьба всего города.- -Страна: Россия
    Студия: Bubble Studio
    Продолжительность: 02:16:36
    Перевод: Не требуется-Файл
    Качество: WEB-DL 1080p
    Формат: MKV (Источник КиноПоиск HD (чистый видеоряд)
    Видео: MPEG-4 (AVC), 1920х804 (2.40:1), 24 fps, ~ 4726 kbps, 0.128 bit/pixel
    Аудио: E-AC3, 48 kHz, 6 ch, 320 Kbps
    Субтитры: Русские-

    MI

    General
    Unique ID : 38338584515568054782334966615549755890 (0x1CD7BE27C6039AF73C2A029CECAD41F2)
    Complete name : D:\Mayor.Grom.Chumnoy.Doktor.2021.1080p.KP.WEB-DL.DDP5.1.H.264-EniaHD.mkv
    Format : Matroska
    Format version : Version 4
    File size : 4.82 GiB
    Duration : 2 h 16 min
    Overall bit rate : 5 048 kb/s
    Encoded date : UTC 2021-05-04 21:36:26
    Writing application : mkvmerge v56.1.0 ('My Friend') 64-bit
    Writing library : libebml v1.4.2 + libmatroska v1.6.4
    Video
    ID : 1
    Format : AVC
    Format/Info : Advanced Video Codec
    Format profile : High@L4
    Format settings : CABAC / 5 Ref Frames
    Format settings, CABAC : Yes
    Format settings, Reference fra : 5 frames
    Codec ID : V_MPEG4/ISO/AVC
    Duration : 2 h 16 min
    Bit rate : 4 726 kb/s
    Nominal bit rate : 6 000 kb/s
    Width : 1 920 pixels
    Height : 804 pixels
    Display aspect ratio : 2.40:1
    Frame rate mode : Constant
    Frame rate : 24.000 FPS
    Color space : YUV
    Chroma subsampling : 4:2:0
    Bit depth : 8 bits
    Scan type : Progressive
    Bits/(Pixel*Frame) : 0.128
    Stream size : 4.51 GiB (94%)
    Writing library : x264 core 157 r2969 d4099dd
    Encoding settings : cabac=1 / ref=5 / deblock=1:0:0 / analyse=0x3:0x133 / me=umh / subme=10 / psy=1 / psy_rd=1.00:0.00 / mixed_ref=1 / me_range=24 / chroma_me=1 / trellis=2 / 8x8dct=1 / cqm=0 / deadzone=21,11 / fast_pskip=1 / chroma_qp_offset=-2 / threads=25 / lookahead_threads=4 / sliced_threads=0 / nr=0 / decimate=1 / interlaced=0 / bluray_compat=0 / stitchable=1 / constrained_intra=0 / bframes=8 / b_pyramid=2 / b_adapt=2 / b_bias=0 / direct=3 / weightb=1 / open_gop=0 / weightp=2 / keyint=192 / keyint_min=96 / scenecut=40 / intra_refresh=0 / rc_lookahead=60 / rc=2pass / mbtree=1 / bitrate=6000 / ratetol=1.0 / qcomp=0.60 / qpmin=0 / qpmax=69 / qpstep=4 / cplxblur=20.0 / qblur=0.5 / vbv_maxrate=6600 / vbv_bufsize=1100 / nal_hrd=none / filler=0 / ip_ratio=1.40 / aq=1:1.00
    Default : Yes
    Forced : No
    Audio
    ID : 2
    Format : E-AC-3
    Format/Info : Enhanced AC-3
    Commercial name : Dolby Digital Plus
    Codec ID : A_EAC3
    Duration : 2 h 16 min
    Bit rate mode : Constant
    Bit rate : 320 kb/s
    Channel(s) : 6 channels
    Channel layout : L R C LFE Ls Rs
    Sampling rate : 48.0 kHz
    Frame rate : 31.250 FPS (1536 SPF)
    Compression mode : Lossy
    Stream size : 313 MiB (6%)
    Language : Russian
    Service kind : Complete Main
    Default : Yes
    Forced : No
    Text
    ID : 3
    Format : UTF-8
    Codec ID : S_TEXT/UTF8
    Codec ID/Info : UTF-8 Plain Text
    Duration : 2 h 8 min
    Bit rate : 83 b/s
    Count of elements : 1637
    Stream size : 78.7 KiB (0%)
    Language : Russian
    Default : No
    Forced : No
    Показать сообщения:    
    Главная  Кинофильмы  Зарубежные кинофильмы  HD

    Текущее время: 18-Июн 21:06

    Часовой пояс: UTC + 5



    Вы не можете начинать темы
    Вы не можете отвечать на сообщения
    Вы не можете редактировать свои сообщения
    Вы не можете удалять свои сообщения
    Вы не можете голосовать в опросах
    Вы не можете прикреплять файлы к сообщениям
    Вы не можете скачивать файлы