Уважаемые гости сайта! Добро Пожаловать на наш торрент трекер,где Вы можете бесплатно скачать любой Софт,Фильмы,Музыку и многое другое! А так же постоянно ведется набор модераторов и релизеров. Зарегистрируйтесь сейчас, чтобы получить доступ ко всем функциям. После регистрации или входа на сайт вы сможете создавать темы, отвечать на сообщения и скачивать файлы.

Навигация по Торрент раздачам и Форум и Стол заказов и Группы

 В ринге только девушки / Chick Fight (Пол Лейден / Paul Leyden) [2020, Боевик, драма, комедия, спорт, HDRip] DUB

Главная  Кинофильмы  Зарубежные кинофильмы  Фильмы 2011-2021 годов
Статистика раздачи
Нет
 
     
 
 
 
Автор Сообщение
  • kisel ®
  • Не в сети

    Автор темы

  • 7467
  • Пол: Мужской

  • Стаж: 5 месяцев 18 дней

  • Сообщений: 86

  • Провайдер: UzOnline UzOnline

  • Карма: 0


  • Нет нарушения:

  • Награды: Нет
  • Создавать темы 03-Май-2021 08:08

    В ринге только девушки / Chick Fight -Информация о фильме
    Название: В ринге только девушки
    Оригинальное название: Chick Fight
    Год выхода: 2020
    Жанр: Боевик, драма, комедия, спорт-Режиссер: Пол Лейден
    В ролях: Малин Акерман, Белла Торн, Алек Болдуин, Дульсе Слоун, Кевин Коннолли, Кевин Нэш, Алек Мапа, Доминик Джексон, Фортун Феймстер, Алексия Бальер-О фильме:
    В жизни Анны все резко пошло наперекосяк. Любимая мама умерла, а доброжелательный отец объявил, что он гей. Вдобавок она случайно сожгла собственную кофейню. Пытаясь помочь, лучшая подруга Анны Шарлин приводит девушку в подпольный женский бойцовский клуб.- -Страна: США
    Студия: Yale Productions, Media Finance Capital, Idiot Savant Pictures
    Продолжительность: 01:37:21
    Перевод: Дублированный iTunes-Файл
    Качество: НDRip
    Формат: AVI
    Кодек: XviD
    Видео: 720x304, 1756 Kb/s, 23.976 fps
    Аудио: Russian: 48.0 kHz, AC3, 384 Kb/s (6 ch)-

    MI

    General
    Complete name : D:\Chick.Fight.2020.HDRip.ELEKTRI4KA.UNIONGANG.avi
    Format : AVI
    Format/Info : Audio Video Interleave
    File size : 1.46 GiB
    Duration : 1 h 37 min
    Overall bit rate : 2 149 kb/s
    Writing application : VirtualDubMod 1.5.10.3 | www.virtualdub-fr.org || (build 2550/release)
    Writing library : VirtualDubMod build 2550/release
    Video
    ID : 0
    Format : MPEG-4 Visual
    Format profile : Advanced Simple@L5
    Format settings : BVOP1
    Format settings, BVOP : 1
    Format settings, QPel : No
    Format settings, GMC : No warppoints
    Format settings, Matrix : Default (MPEG)
    Codec ID : XVID
    Codec ID/Hint : XviD
    Duration : 1 h 37 min
    Bit rate : 1 756 kb/s
    Width : 720 pixels
    Height : 304 pixels
    Display aspect ratio : 2.35:1
    Frame rate : 23.976 (24000/1001) FPS
    Color space : YUV
    Chroma subsampling : 4:2:0
    Bit depth : 8 bits
    Scan type : Progressive
    Compression mode : Lossy
    Bits/(Pixel*Frame) : 0.335
    Stream size : 1.19 GiB (82%)
    Writing library : XviD 67
    Audio
    ID : 1
    Format : AC-3
    Format/Info : Audio Coding 3
    Commercial name : Dolby Digital
    Codec ID : 2000
    Duration : 1 h 37 min
    Bit rate mode : Constant
    Bit rate : 384 kb/s
    Channel(s) : 6 channels
    Channel layout : L R C LFE Ls Rs
    Sampling rate : 48.0 kHz
    Frame rate : 31.250 FPS (1536 SPF)
    Compression mode : Lossy
    Stream size : 267 MiB (18%)
    Alignment : Split across interleaves
    Interleave, duration : 42 ms (1.00 video frame)
    Interleave, preload duration : 500 ms
    Service kind : Complete Main

      -746

    Создавать темы 03-Май-2021 08:11 (спустя 2 минуты)

    Топик был перенесен из форума Зарубежные кинофильмы в форум Фильмы 2011-2021 годов


    kisel
    Показать сообщения:    
    Главная  Кинофильмы  Зарубежные кинофильмы  Фильмы 2011-2021 годов

    Текущее время: 18-Июн 19:45

    Часовой пояс: UTC + 5



    Вы не можете начинать темы
    Вы не можете отвечать на сообщения
    Вы не можете редактировать свои сообщения
    Вы не можете удалять свои сообщения
    Вы не можете голосовать в опросах
    Вы не можете прикреплять файлы к сообщениям
    Вы не можете скачивать файлы