Уважаемые гости сайта! Добро Пожаловать на наш торрент трекер,где Вы можете бесплатно скачать любой Софт,Фильмы,Музыку и многое другое! А так же постоянно ведется набор модераторов и релизеров. Зарегистрируйтесь сейчас, чтобы получить доступ ко всем функциям. После регистрации или входа на сайт вы сможете создавать темы, отвечать на сообщения и скачивать файлы.

Навигация по Торрент раздачам и Форум и Стол заказов и Группы

 Ученик экзорциста / The Seventh Day (Джастин П. Ланж / Justin P. Lange) [2021, Ужасы, WEB-DLRip] DUB

Главная  Кинофильмы  Зарубежные кинофильмы  Новинки
Статистика раздачи
Нет
 
     
 
 
 
Автор Сообщение
  • kisel ®
  • Не в сети

    Автор темы

  • 7467
  • Пол: Мужской

  • Стаж: 5 месяцев 18 дней

  • Сообщений: 86

  • Провайдер: UzOnline UzOnline

  • Карма: 0


  • Нет нарушения:

  • Награды: Нет
  • Создавать темы 01-Май-2021 20:31

    Ученик экзорциста / The Seventh Day«Эпидемия одержимости захватывает мир»- Информация о фильме
    Название: Ученик экзорциста
    Оригинальное название: The Seventh Day
    Год выхода: 2021
    Жанр: Ужасы
    Режиссер: Джастин П. Ланж
    В ролях: Гай Пирс, Кит Дэвид, Стивен Лэнг, Робин Бартлетт, Вадир Дербес, Хит Фриман, Ханна Калуэлл, Брэйди Дженнесс, Бен Хикс, Акорье Уайт-О фильме:
    Молодой священник в первый же день практики в школе экзорцистов сталкивается с очень сложным случаем одержимости. Под руководством бывалого экзорциста- наставника ему придется погрузиться в ад на земле, столкнуться с собственными демонами и разобраться, почему одержимость распространяется как эпидемия, хотя школа готовит всё больше новых экзорцистов.- -Страна: США
    Продолжительность: 01:27:10
    Перевод: Дублированный iTunes-Файл
    Качество: WEB-DLRip
    Формат: AVI
    Кодек: XviD
    Видео: 720x304, 2011 Kb/s, 23.976 fps
    Аудио: AC3, 384 Kb/s (6 ch)-

    MI

    General
    Complete name : D:\Uchenik.ekzortsista.2021.WEB-DLRip.ELEKTRI4KA.UNIONGANG.avi
    Format : AVI
    Format/Info : Audio Video Interleave
    File size : 1.46 GiB
    Duration : 1 h 27 min
    Overall bit rate : 2 404 kb/s
    Writing application : VirtualDubMod 1.5.10.3 | www.virtualdub-fr.org || (build 2550/release)
    Writing library : VirtualDubMod build 2550/release
    Video
    ID : 0
    Format : MPEG-4 Visual
    Format profile : Advanced Simple@L5
    Format settings : BVOP2
    Format settings, BVOP : 2
    Format settings, QPel : No
    Format settings, GMC : No warppoints
    Format settings, Matrix : Default (H.263)
    Codec ID : XVID
    Codec ID/Hint : XviD
    Duration : 1 h 27 min
    Bit rate : 2 011 kb/s
    Width : 720 pixels
    Height : 304 pixels
    Display aspect ratio : 2.35:1
    Frame rate : 23.976 (24000/1001) FPS
    Color space : YUV
    Chroma subsampling : 4:2:0
    Bit depth : 8 bits
    Scan type : Progressive
    Compression mode : Lossy
    Bits/(Pixel*Frame) : 0.383
    Stream size : 1.22 GiB (84%)
    Writing library : XviD 1.2.1 (UTC 2008-12-04)
    Audio
    ID : 1
    Format : AC-3
    Format/Info : Audio Coding 3
    Commercial name : Dolby Digital
    Codec ID : 2000
    Duration : 1 h 27 min
    Bit rate mode : Constant
    Bit rate : 384 kb/s
    Channel(s) : 6 channels
    Channel layout : L R C LFE Ls Rs
    Sampling rate : 48.0 kHz
    Frame rate : 31.250 FPS (1536 SPF)
    Compression mode : Lossy
    Stream size : 239 MiB (16%)
    Alignment : Split across interleaves
    Interleave, duration : 42 ms (1.00 video frame)
    Interleave, preload duration : 500 ms
    Service kind : Complete Main
    Показать сообщения:    
    Главная  Кинофильмы  Зарубежные кинофильмы  Новинки

    Текущее время: 18-Июн 21:07

    Часовой пояс: UTC + 5



    Вы не можете начинать темы
    Вы не можете отвечать на сообщения
    Вы не можете редактировать свои сообщения
    Вы не можете удалять свои сообщения
    Вы не можете голосовать в опросах
    Вы не можете прикреплять файлы к сообщениям
    Вы не можете скачивать файлы