Уважаемые гости сайта! Добро Пожаловать на наш торрент трекер,где Вы можете бесплатно скачать любой Софт,Фильмы,Музыку и многое другое! А так же постоянно ведется набор модераторов и релизеров. Зарегистрируйтесь сейчас, чтобы получить доступ ко всем функциям. После регистрации или входа на сайт вы сможете создавать темы, отвечать на сообщения и скачивать файлы.

Навигация по Торрент раздачам и Форум и Стол заказов и Группы

 Невидимка Сью / Invisible Sue (Маркус Дитрих / Markus Dietrich) [2018, Фэнтези, приключения, WEB-DLRip] DUB

Главная  Кинофильмы  Зарубежные кинофильмы  Фильмы 2011-2021 годов
Статистика раздачи
Нет
 
     
 
 
 
Автор Сообщение
  • kisel ®
  • Не в сети

    Автор темы

  • 7467
  • Пол: Мужской

  • Стаж: 5 месяцев 18 дней

  • Сообщений: 86

  • Провайдер: UzOnline UzOnline

  • Карма: 0


  • Нет нарушения:

  • Награды: Нет
  • Создавать темы 01-Май-2021 01:28

    Невидимка Сью / Invisible Sue
    -Информация о фильме
    Название: Невидимка Сью
    Оригинальное название: Invisible Sue
    Год выхода: 2018
    Жанр: Фэнтези, приключения
    Режиссер: Маркус Дитрих
    В ролях: Руби М. Лихтенберг, Анна Ширин Хабеданк, Луи Экхардт, Виктория Майер, Люк Шильц, Жанна Вернер, Патрик Хастерт, Лотте Чарнтке, Татья Сейбт, Изабель Штурм, Стефани Стремлер, Кэтрин Янке, Роланд Гельхаузен, Микки Хардт, Рой Питер Линк-О фильме: У Сью возникла уникальная способность становиться невидимой, после того как в генетической лаборатории её матери случился взрыв. Её мама разрабатывала чудотворную жидкость, для борьбы с недугами. В один момент мать Сью исчезает. Сью и ее друзья объединяют свои силы и таланты, чтобы освободить ее мать, разоблачить заговор, стоящий за ее исчезновением, и вывести правду на свет.- -Страна: Германия, Люксембург / Ostlicht Filmproduktion
    Продолжительность: 01:35:30
    Перевод: Дублированный | IVI-Файл
    Качество: WEB-DLRip
    Формат: AVI
    Кодек: XviD
    Видео: XviD, 1985 Kb/s, 704x288, 23.976 fps
    Аудио: 48 kHz, AC3, 2/0 (L, R) ch, 192 Kbps
    Субтитры: Нет-

    MI

    General
    Complete name : D:\Invisible.Sue.2019.WEB-DLRip.ELEKTRI4KA.UNIONGANG.avi
    Format : AVI
    Format/Info : Audio Video Interleave
    Format profile : OpenDML
    File size : 1.46 GiB
    Duration : 1 h 35 min
    Overall bit rate : 2 190 kb/s
    Movie name : Invisible.Sue.2019.1080p.WEB-DL.ELEKTRI4KA.UNIONGANG.
    Writing application : Lavf58.20.100
    Video
    ID : 0
    Format : MPEG-4 Visual
    Format profile : Advanced Simple@L5
    Format settings : BVOP1
    Format settings, BVOP : 1
    Format settings, QPel : No
    Format settings, GMC : No warppoints
    Format settings, Matrix : Default (MPEG)
    Codec ID : XVID
    Codec ID/Hint : XviD
    Duration : 1 h 35 min
    Bit rate : 1 985 kb/s
    Width : 704 pixels
    Height : 288 pixels
    Display aspect ratio : 2.40:1
    Frame rate : 23.976 (24000/1001) FPS
    Color space : YUV
    Chroma subsampling : 4:2:0
    Bit depth : 8 bits
    Scan type : Progressive
    Compression mode : Lossy
    Bits/(Pixel*Frame) : 0.408
    Stream size : 1.32 GiB (91%)
    Writing library : XviD 67
    Audio
    ID : 1
    Format : AC-3
    Format/Info : Audio Coding 3
    Commercial name : Dolby Digital
    Codec ID : 2000
    Duration : 1 h 35 min
    Bit rate mode : Constant
    Bit rate : 192 kb/s
    Channel(s) : 2 channels
    Channel layout : L R
    Sampling rate : 48.0 kHz
    Frame rate : 31.250 FPS (1536 SPF)
    Bit depth : 16 bits
    Compression mode : Lossy
    Stream size : 131 MiB (9%)
    Alignment : Aligned on interleaves
    Interleave, duration : 32 ms (0.77 video frame)
    Title : DUB (IVI)
    Service kind : Complete Main

      -746

    Создавать темы 01-Май-2021 01:30 (спустя 1 минута)

    Топик был перенесен из форума Зарубежные кинофильмы в форум Фильмы 2011-2021 годов


    kisel
    Показать сообщения:    
    Главная  Кинофильмы  Зарубежные кинофильмы  Фильмы 2011-2021 годов

    Текущее время: 18-Июн 20:58

    Часовой пояс: UTC + 5



    Вы не можете начинать темы
    Вы не можете отвечать на сообщения
    Вы не можете редактировать свои сообщения
    Вы не можете удалять свои сообщения
    Вы не можете голосовать в опросах
    Вы не можете прикреплять файлы к сообщениям
    Вы не можете скачивать файлы