Уважаемые гости сайта! Добро Пожаловать на наш торрент трекер,где Вы можете бесплатно скачать любой Софт,Фильмы,Музыку и многое другое! А так же постоянно ведется набор модераторов и релизеров. Зарегистрируйтесь сейчас, чтобы получить доступ ко всем функциям. После регистрации или входа на сайт вы сможете создавать темы, отвечать на сообщения и скачивать файлы.

Навигация по Торрент раздачам и Форум и Стол заказов и Группы

 Том и Джерри / Tom and Jerry (Тим Стори / Tim Story) [2021, Комедия, приключения, семейный, BDRip] DUB

Главная  Кинофильмы  Зарубежные кинофильмы  Новинки
Статистика раздачи
Нет
 
     
 
 
 
Автор Сообщение
  • kisel ®
  • Не в сети

    Автор темы

  • 7467
  • Пол: Мужской

  • Стаж: 5 месяцев 18 дней

  • Сообщений: 86

  • Провайдер: UzOnline UzOnline

  • Карма: 0


  • Нет нарушения:

  • Награды: Нет
  • Создавать темы 01-Май-2021 01:20

    Том и Джерри / Tom and Jerry -Информация о фильме
    Название: Том и Джерри
    Оригинальное название: Tom and Jerry
    Год выхода: 2021
    Жанр: Комедия, приключения, семейный-Режиссер: Тим Стори
    В ролях: Хлоя Грейс Морец, Майкл Пенья, Роб Делани, Том, Джерри, Джордан Болджер, Пэтси Ферран, Паллави Шарда, Колин Жост, Соми Гуха, Аджай Чабра, Патрик Полетти, Дженис Ахерн, Камилла Арведсон, Кен Жонг, Джо Боун, Брайан Бовелл-О фильме:
    Кайла, сотрудница престижного отеля, где обитает мышонок Джерри, рискующий нарушить ход дорогой свадьбы, нанимает уличного кота Тома, чтобы разобраться с наглым грызуном. Но решить эту проблему не так-то просто.- -Страна: Великобритания, Франция, Германия, США
    Продолжительность: 01:41:01
    Перевод: Дублированный | iTunes-Файл
    Качество: BDRip
    Формат: AVI
    Кодек: XviD
    Видео: XviD, 704x384, 23.976 fps, 1612 Kbps
    Аудио: AC3, 48 kHz, 6 ch, 384 kbps | русский | iTunes
    Субтитры: Русские (форсированные, полные) отдельно-

    MI

    General
    Complete name : D:\Tom.and.Jerry.2021.BDRip.1.42Gb.MegaPeer\Tom.and.Jerry.2021.BDRip.1.42Gb.MegaPeer.avi
    Format : AVI
    Format/Info : Audio Video Interleave
    File size : 1.42 GiB
    Duration : 1 h 41 min
    Overall bit rate : 2 005 kb/s
    Movie name : Том и Джерри / Tom and Jerry (2021)
    Director : stillet@MegaPeer
    Genre : Комедия, приключения, семейн
    Writing application : VirtualDubModRus 1.5.10.2 (build 2542/release)
    Video
    ID : 0
    Format : MPEG-4 Visual
    Format profile : Advanced Simple@L5
    Format settings : BVOP1 / Custom Matrix
    Format settings, BVOP : 1
    Format settings, QPel : No
    Format settings, GMC : No warppoints
    Format settings, Matrix : Custom
    Codec ID : XVID
    Codec ID/Hint : XviD
    Duration : 1 h 41 min
    Bit rate : 1 612 kb/s
    Width : 704 pixels
    Height : 384 pixels
    Display aspect ratio : 1.85:1
    Frame rate : 23.976 (24000/1001) FPS
    Color space : YUV
    Chroma subsampling : 4:2:0
    Bit depth : 8 bits
    Scan type : Progressive
    Compression mode : Lossy
    Bits/(Pixel*Frame) : 0.249
    Stream size : 1.14 GiB (80%)
    Writing library : XviD 73
    Audio
    ID : 1
    Format : AC-3
    Format/Info : Audio Coding 3
    Commercial name : Dolby Digital
    Codec ID : 2000
    Duration : 1 h 41 min
    Bit rate mode : Constant
    Bit rate : 384 kb/s
    Channel(s) : 6 channels
    Channel layout : L R C LFE Ls Rs
    Sampling rate : 48.0 kHz
    Frame rate : 31.250 FPS (1536 SPF)
    Compression mode : Lossy
    Stream size : 278 MiB (19%)
    Alignment : Split across interleaves
    Interleave, duration : 42 ms (1.00 video frame)
    Interleave, preload duration : 500 ms
    Service kind : Complete Main

      -746

    Создавать темы 01-Май-2021 01:22 (спустя 1 минута)

    Топик был перенесен из форума Зарубежные кинофильмы в форум Новинки


    kisel
    Показать сообщения:    
    Главная  Кинофильмы  Зарубежные кинофильмы  Новинки

    Текущее время: 18-Июн 20:48

    Часовой пояс: UTC + 5



    Вы не можете начинать темы
    Вы не можете отвечать на сообщения
    Вы не можете редактировать свои сообщения
    Вы не можете удалять свои сообщения
    Вы не можете голосовать в опросах
    Вы не можете прикреплять файлы к сообщениям
    Вы не можете скачивать файлы