Уважаемые гости сайта! Добро Пожаловать на наш торрент трекер,где Вы можете бесплатно скачать любой Софт,Фильмы,Музыку и многое другое! А так же постоянно ведется набор модераторов и релизеров. Зарегистрируйтесь сейчас, чтобы получить доступ ко всем функциям. После регистрации или входа на сайт вы сможете создавать темы, отвечать на сообщения и скачивать файлы.

Навигация по Торрент раздачам и Форум и Стол заказов и Группы

 Митчеллы против машин / The Mitchells vs. the Machines (Майкл Рианда, Джефф Роу / Michael Rianda, Jeff Rowe) [2021, Мультфильм, фантастика, комедия, приключения, семейный, WEB-DL 1080p] DUB

Главная  Мультфильмы  Зарубежные мультфильмы  Новинки
Статистика раздачи
Нет
 
     
 
 
 
Автор Сообщение
  • kisel ®
  • Не в сети

    Автор темы

  • 7467
  • Пол: Мужской

  • Стаж: 5 месяцев 18 дней

  • Сообщений: 86

  • Провайдер: UzOnline UzOnline

  • Карма: 0


  • Нет нарушения:

  • Награды: Нет
  • Создавать темы 30-Апр-2021 15:03

    Митчеллы против машин / The Mitchells vs. the Machines -Информация о фильме
    Название: Митчеллы против машин
    Оригинальное название: The Mitchells vs. the Machines
    Год выхода: 2021
    Жанр: Мультфильм, фантастика, комедия, приключения, семейный-Режиссер: Майкл Рианда, Джефф Роу
    В ролях: Дэйв Фоли, Эбби Джейкобсон, Дэнни МакБрайд, Майя Рудольф, Эрик Андре, Майкл Рианда-О фильме: Мультфильм рассказывает о не самой дружной, но все же любящей семье Митчеллов, которые отправляются в поездку и сталкиваются с восстанием машин. Оказывается, что по всему миру все электронные устройства, от мобильных до автомобилей с автопилотом, настроились против людей. Митчеллам приходится отложить все личные проблемы, чтобы спасти человечество.- -Страна: США, Канада, Франция
    Студия: Columbia Pictures Corporation, Lord Miller, Sony Pictures Animation
    Продолжительность: 01:54:02
    Перевод: Дублированный | Netflix-Файл
    Качество: WEB-DL 1080p
    Формат: MKV
    Видео: MPEG-4 AVC, 1920x1080, 7005 Kbit/s, 23.976 fps
    Аудио #01: 48 kHz, E-AC3, 5.1, 640 Kbps | Netflix | RUS
    Аудио #03: 48 kHz, E-AC3+Atmos, 5.1, 768 Kbps | Оригинал | ENG
    Субтитры: Русские (Forced, full), английские-

    MI

    General
    Unique ID : 187909585687284776426148185038179313000 (0x8D5E11DDD6F1DCFD5F49D6D0A71CA568)
    Complete name : C:VideoThe.Mitchells.vs..the.Machines.2021.WEB-DL.1080p.seleZen.mkv
    Format : Matroska
    Format version : Version 4
    File size : 7.04 GiB
    Duration : 1 h 54 min
    Overall bit rate mode : Variable
    Overall bit rate : 8 842 kb/s
    Movie name : The Mitchells vs. the Machines 2021 from seleZen
    Encoded date : UTC 2021-04-30 07:07:37
    Writing application : mkvmerge v53.0.0 ('Fool's Gold') 64-bit
    Writing library : libebml v1.4.1 + libmatroska v1.6.2
    Video
    ID : 1
    Format : AVC
    Format/Info : Advanced Video Codec
    Format profile : High@L4
    Format settings : CABAC / 4 Ref Frames
    Format settings, CABAC : Yes
    Format settings, Reference : 4 frames
    Codec ID : V_MPEG4/ISO/AVC
    Duration : 1 h 50 min
    Bit rate mode : Variable
    Bit rate : 7 005 kb/s
    Maximum bit rate : 20.0 Mb/s
    Width : 1 920 pixels
    Height : 1 080 pixels
    Display aspect ratio : 16:9
    Frame rate mode : Constant
    Frame rate : 23.976 (24000/1001) FPS
    Color space : YUV
    Chroma subsampling : 4:2:0
    Bit depth : 8 bits
    Scan type : Progressive
    Bits/(Pixel*Frame) : 0.141
    Stream size : 5.41 GiB (77%)
    Writing library : x264 core 148 r2722 1b0121b
    Encoding settings : cabac=1 / ref=4 / deblock=1:0:0 / analyse=0x3:0x111 / me=umh / subme=10 / psy=1 / psy_rd=1.00:0.00 / mixed_ref=1 / me_range=120 / chroma_me=1 / trellis=2 / 8x8dct=1 / cqm=0 / deadzone=21,11 / fast_pskip=1 / chroma_qp_offset=-2 / threads=6 / lookahead_threads=1 / sliced_threads=0 / nr=0 / decimate=1 / interlaced=0 / bluray_compat=0 / stitchable=1 / constrained_intra=0 / bframes=16 / b_pyramid=2 / b_adapt=2 / b_bias=0 / direct=3 / weightb=1 / open_gop=0 / weightp=2 / keyint=240 / keyint_min=121 / scenecut=0 / intra_refresh=0 / rc_lookahead=240 / rc=crf / mbtree=1 / crf=16.0 / qcomp=0.50 / qpmin=6 / qpmax=51 / qpstep=4 / vbv_maxrate=20000 / vbv_bufsize=25000 / crf_max=0.0 / nal_hrd=vbr / filler=0 / ip_ratio=1.40 / aq=1:0.80
    Default : Yes
    Forced : No
    Audio #1
    ID : 2
    Format : E-AC-3
    Format/Info : Enhanced AC-3
    Commercial name : Dolby Digital Plus
    Codec ID : A_EAC3
    Duration : 1 h 54 min
    Bit rate mode : Constant
    Bit rate : 640 kb/s
    Channel(s) : 6 channels
    Channel layout : L R C LFE Ls Rs
    Sampling rate : 48.0 kHz
    Frame rate : 31.250 FPS (1536 SPF)
    Compression mode : Lossy
    Stream size : 522 MiB (7%)
    Title : Netflix
    Language : Russian
    Service kind : Complete Main
    Default : Yes
    Forced : Yes
    Audio #2
    ID : 3
    Format : AC-3
    Format/Info : Audio Coding 3
    Commercial name : Dolby Digital
    Codec ID : A_AC3
    Duration : 1 h 54 min
    Bit rate mode : Constant
    Bit rate : 640 kb/s
    Channel(s) : 6 channels
    Channel layout : L R C LFE Ls Rs
    Sampling rate : 48.0 kHz
    Frame rate : 31.250 FPS (1536 SPF)
    Compression mode : Lossy
    Stream size : 522 MiB (7%)
    Title : Netflix
    Language : Russian
    Service kind : Complete Main
    Default : No
    Forced : No
    Audio #3
    ID : 4
    Format : E-AC-3 JOC
    Format/Info : Enhanced AC-3 with Joint Object Coding
    Commercial name : Dolby Digital Plus with Dolby Atmos
    Codec ID : A_EAC3
    Duration : 1 h 54 min
    Bit rate mode : Constant
    Bit rate : 768 kb/s
    Channel(s) : 6 channels
    Channel layout : L R C LFE Ls Rs
    Sampling rate : 48.0 kHz
    Frame rate : 31.250 FPS (1536 SPF)
    Compression mode : Lossy
    Stream size : 626 MiB (9%)
    Title : English
    Language : English
    Service kind : Complete Main
    Default : No
    Forced : No
    Complexity index : 16
    Number of dynamic objects : 15
    Bed channel count : 1 channel
    Bed channel configuration : LFE
    Text #1
    ID : 5
    Format : UTF-8
    Codec ID : S_TEXT/UTF8
    Codec ID/Info : UTF-8 Plain Text
    Duration : 1 h 48 min
    Bit rate : 5 b/s
    Count of elements : 129
    Stream size : 4.05 KiB (0%)
    Title : Forced
    Language : Russian
    Default : Yes
    Forced : Yes
    Text #2
    ID : 6
    Format : UTF-8
    Codec ID : S_TEXT/UTF8
    Codec ID/Info : UTF-8 Plain Text
    Duration : 1 h 48 min
    Bit rate : 99 b/s
    Count of elements : 1558
    Stream size : 79.6 KiB (0%)
    Title : Russian
    Language : Russian
    Default : No
    Forced : No
    Text #3
    ID : 7
    Format : UTF-8
    Codec ID : S_TEXT/UTF8
    Codec ID/Info : UTF-8 Plain Text
    Duration : 24 min 10 s
    Bit rate : 1 b/s
    Count of elements : 9
    Stream size : 248 Bytes (0%)
    Title : English [Forced]
    Language : English
    Default : No
    Forced : Yes
    Text #4
    ID : 8
    Format : UTF-8
    Codec ID : S_TEXT/UTF8
    Codec ID/Info : UTF-8 Plain Text
    Duration : 1 h 49 min
    Bit rate : 113 b/s
    Count of elements : 2179
    Stream size : 90.8 KiB (0%)
    Title : English
    Language : English
    Default : No
    Forced : No

      -746

    Создавать темы 30-Апр-2021 15:05 (спустя 1 минута)

    Топик был перенесен из форума Зарубежные кинофильмы в форум Новинки


    kisel
    Показать сообщения:    
    Главная  Мультфильмы  Зарубежные мультфильмы  Новинки

    Текущее время: 18-Июн 20:07

    Часовой пояс: UTC + 5



    Вы не можете начинать темы
    Вы не можете отвечать на сообщения
    Вы не можете редактировать свои сообщения
    Вы не можете удалять свои сообщения
    Вы не можете голосовать в опросах
    Вы не можете прикреплять файлы к сообщениям
    Вы не можете скачивать файлы