Уважаемые гости сайта! Добро Пожаловать на наш торрент трекер,где Вы можете бесплатно скачать любой Софт,Фильмы,Музыку и многое другое! А так же постоянно ведется набор модераторов и релизеров. Зарегистрируйтесь сейчас, чтобы получить доступ ко всем функциям. После регистрации или входа на сайт вы сможете создавать темы, отвечать на сообщения и скачивать файлы.

Навигация по Торрент раздачам и Форум и Стол заказов и Группы

 Позывной «Карим» / Karim (Федерико Алотто / Federico Alotto) [2020, Боевик, WEB-DLRip] MVO

Главная  Кинофильмы  Зарубежные кинофильмы
Статистика раздачи
Скачал: [ 1 ]
 
     
 
 
 
Автор Сообщение
  • kisel ®
  • Не в сети

    Автор темы

  • 7467
  • Пол: Мужской

  • Стаж: 5 месяцев 18 дней

  • Сообщений: 86

  • Провайдер: UzOnline UzOnline

  • Карма: 0


  • Нет нарушения:

  • Награды: Нет
  • Создавать темы 29-Апр-2021 06:14

    Позывной «Карим» / Karim -Информация о фильме
    Название: Позывной «Карим»
    Оригинальное название: Karim
    Год выхода: 2020
    Жанр: Боевик-Режиссер: Федерико Алотто
    В ролях: Мохамед Зуаи, Валентина Черви, Стелла Эгитто, Андреа Дзирио, Фабио Фулько, Кристиан Бурруано, Айман Машхур, Александрос Меметай, Кристиан Калабрезе, Паоло Иларио Пеццотти-О фильме:
    После нескольких лет, проведенных в раздираемой войной Сирии, главный герой возвращается в Италию. Чтобы вернуть свою жизнь и оставить страшное прошлое позади, ему предстоит выполнить всего одну, последнюю миссию. Однако цена за нее может быть слишком высока.- -Выпущено: Италия / Emilia-Romagna Film Commission, Film Commission Regione Piemonte, Lime Film, Rai Cinema
    Продолжительность: 01:42:08
    Озвучивание: Профессиональное (многоголосое) [iTunes]-Файл
    Качество: WEB-DLRip
    Формат: AVI
    Видео: XviD, 1656 Kb/s, 720x304
    Аудио: Russian: 48 kHz, AC3 Dolby Digital, 3/2 (L, C, R, l, r) + LFE ch, ~384 Kbps-

    MI

    General
    Complete name : D:\Karim.2020.WEB-DLRip.ELEKTRI4KA.UNIONGANG.avi
    Format : AVI
    Format/Info : Audio Video Interleave
    File size : 1.46 GiB
    Duration : 1 h 42 min
    Overall bit rate : 2 049 kb/s
    Movie name : Karim.2020.WEB-DL.1080p.ELEKTRI4KA.UNIONGANG.
    Writing application : VirtualDubMod 1.5.10.3 | www.virtualdub-fr.org || (build 2550/release)
    Writing library : VirtualDubMod build 2550/release
    Video
    ID : 0
    Format : MPEG-4 Visual
    Format profile : Advanced Simple@L5
    Format settings : BVOP1
    Format settings, BVOP : 1
    Format settings, QPel : No
    Format settings, GMC : No warppoints
    Format settings, Matrix : Default (MPEG)
    Codec ID : XVID
    Codec ID/Hint : XviD
    Duration : 1 h 42 min
    Bit rate : 1 656 kb/s
    Width : 720 pixels
    Height : 304 pixels
    Display aspect ratio : 2.35:1
    Frame rate : 24.000 FPS
    Color space : YUV
    Chroma subsampling : 4:2:0
    Bit depth : 8 bits
    Scan type : Progressive
    Compression mode : Lossy
    Bits/(Pixel*Frame) : 0.315
    Stream size : 1.18 GiB (81%)
    Writing library : XviD 67
    Audio
    ID : 1
    Format : AC-3
    Format/Info : Audio Coding 3
    Commercial name : Dolby Digital
    Codec ID : 2000
    Duration : 1 h 42 min
    Bit rate mode : Constant
    Bit rate : 384 kb/s
    Channel(s) : 6 channels
    Channel layout : L R C LFE Ls Rs
    Sampling rate : 48.0 kHz
    Frame rate : 31.250 FPS (1536 SPF)
    Compression mode : Lossy
    Stream size : 281 MiB (19%)
    Alignment : Split across interleaves
    Interleave, duration : 42 ms (1.00 video frame)
    Interleave, preload duration : 500 ms
    Service kind : Complete Main
    Показать сообщения:    
    Главная  Кинофильмы  Зарубежные кинофильмы

    Текущее время: 18-Июн 19:01

    Часовой пояс: UTC + 5



    Вы не можете начинать темы
    Вы не можете отвечать на сообщения
    Вы не можете редактировать свои сообщения
    Вы не можете удалять свои сообщения
    Вы не можете голосовать в опросах
    Вы не можете прикреплять файлы к сообщениям
    Вы не можете скачивать файлы