Уважаемые гости сайта! Добро Пожаловать на наш торрент трекер,где Вы можете бесплатно скачать любой Софт,Фильмы,Музыку и многое другое! А так же постоянно ведется набор модераторов и релизеров. Зарегистрируйтесь сейчас, чтобы получить доступ ко всем функциям. После регистрации или входа на сайт вы сможете создавать темы, отвечать на сообщения и скачивать файлы.

Навигация по Торрент раздачам и Форум и Стол заказов и Группы

 Годзилла против Конга / Godzilla vs. Kong (Адам Вингард / Adam Wingard) [2021, боевик, фантастика, WEBRip] Line

Главная  Кинофильмы  Зарубежные кинофильмы  Новинки (С рекламой)
Статистика раздачи
Качаю: [ 1 ]
Скачал: [ 1 ]
 
     
 
 
 
Автор Сообщение
  • Создавать темы 08-Фев-2021 20:58

    Годзилла против Конга / Godzilla vs. Kong
    -Год выпуска: 2021
    Страна: США / Legendary Entertainment, Warner Bros.
    Жанр: фантастика, боевик, триллер
    Продолжительность: 01:52:26-Перевод: Профессиональный (дублированный)
    Cубтитры: нет
    Оригинальная аудиодорожка: русский-Режиссер: Адам Вингард
    В ролях: Александр Скарсгард, Милли Бобби Браун, Ребекка Холл, Брайан Тайри Генри, Сюн Огури, Эйса Гонсалес, Джулиан Деннисон, Лэнс Реддик, Кайл Чандлер, Демиан Бичир-Описание:
    Конг и группа ученых отправляются в опасное путешествие в поисках родного дома гиганта. Среди них девочка Джия, единственная, кто умеет общаться с Конгом. Неожиданно они сталкиваются с разъяренным Годзиллой, разрушающим все на своем пути. Битва двух титанов, спровоцированная неведомыми силами — лишь малая часть тайны, спрятанной в недрах Земли.
    Внимание: Присутствует Реклама-Качество видео: WEB-DL
    Формат видео: MKV
    Видео: AVC/H.264, 1024x428, ~2625 kbps, 23.976 fps
    Аудио: AC3, 2 ch, 384 kbps - Русский-

    MediaInfo:

    x264 info: frame I:1170 Avg QP:13.54 size: 67111
    x264 info: frame P:46590 Avg QP:17.31 size: 23952
    x264 info: frame B:114001 Avg QP:18.88 size: 8941
    x264 info: consecutive B-frames: 6.9% 8.6% 11.9% 24.3% 11.3% 34.4% 1.3% 0.5% 0.2% 0.1% 0.1% 0.1% 0.0% 0.1% 0.2%
    -------------------------------------------------------------------------------------------------------------
    General
    Unique ID : 261070339520156663101412045808532177025 (0xC4685185C37E1906FC097B938793C081)
    Complete name : D:\Торрент\Godzilla.vs.Kong.2021.WEBRip.AVC.mikos.mkv
    Format : Matroska
    Format version : Version 4
    File size : 2.36 GiB
    Duration : 1 h 52 min
    Overall bit rate : 3 011 kb/s
    Movie name : Godzilla.vs.Kong.2021.WEBRip.AVC.mikos
    Encoded date : UTC 2021-03-31 16:48:06
    Writing application : mkvmerge v55.0.0 ('Waiting For Space') 64-bit
    Writing library : libebml v1.4.2 + libmatroska v1.6.4
    Video
    ID : 1
    Format : AVC
    Format/Info : Advanced Video Codec
    Format profile : High@L4.1
    Format settings : CABAC / 12 Ref Frames
    Format settings, CABAC : Yes
    Format settings, Reference frames : 12 frames
    Codec ID : V_MPEG4/ISO/AVC
    Duration : 1 h 52 min
    Bit rate : 2 625 kb/s
    Width : 1 024 pixels
    Height : 428 pixels
    Display aspect ratio : 2.40:1
    Frame rate mode : Constant
    Frame rate : 23.976 (24000/1001) FPS
    Color space : YUV
    Chroma subsampling : 4:2:0
    Bit depth : 8 bits
    Scan type : Progressive
    Bits/(Pixel*Frame) : 0.250
    Stream size : 2.06 GiB (87%)
    Title : Rip by mikos
    Writing library : x264 core 161 r3020 d198931
    Encoding settings : cabac=1 / ref=12 / deblock=1:-2:-1 / analyse=0x3:0x133 / me=umh / subme=11 / psy=1 / psy_rd=1.00:0.12 / mixed_ref=1 / me_range=32 / chroma_me=1 / trellis=2 / 8x8dct=1 / cqm=0 / deadzone=21,11 / fast_pskip=0 / chroma_qp_offset=-3 / threads=13 / lookahead_threads=3 / sliced_threads=0 / nr=0 / decimate=0 / interlaced=0 / bluray_compat=0 / constrained_intra=0 / bframes=14 / b_pyramid=2 / b_adapt=2 / b_bias=0 / direct=3 / weightb=1 / open_gop=0 / weightp=2 / keyint=240 / keyint_min=23 / scenecut=40 / intra_refresh=0 / rc_lookahead=40 / rc=2pass / mbtree=0 / bitrate=2625 / ratetol=1.0 / qcomp=0.60 / qpmin=0 / qpmax=69 / qpstep=4 / cplxblur=20.0 / qblur=0.5 / vbv_maxrate=50000 / vbv_bufsize=65000 / nal_hrd=none / filler=0 / ip_ratio=1.40 / pb_ratio=1.30 / aq=2:1.00
    Default : Yes
    Forced : No
    Color range : Limited
    Color primaries : BT.709
    Transfer characteristics : BT.709
    Matrix coefficients : BT.709
    Audio
    ID : 2
    Format : AC-3
    Format/Info : Audio Coding 3
    Commercial name : Dolby Digital
    Codec ID : A_AC3
    Duration : 1 h 52 min
    Bit rate mode : Constant
    Bit rate : 384 kb/s
    Channel(s) : 2 channels
    Channel layout : L R
    Sampling rate : 48.0 kHz
    Frame rate : 31.250 FPS (1536 SPF)
    Bit depth : 32 bits
    Compression mode : Lossy
    Stream size : 309 MiB (13%)
    Language : Russian
    Service kind : Complete Main
    Default : Yes
    Forced : No

    _________________



    Последний раз редактировалось: GovRu (2021-04-01 23:52), всего редактировалось 1 раз

      -746

    Создавать темы 01-Апр-2021 23:48 (спустя 1 месяц 21 день)

    Топик был перенесен из форума Трейлеры в форум Новинки (С рекламой)


    kisel
    Показать сообщения:    
    Главная  Кинофильмы  Зарубежные кинофильмы  Новинки (С рекламой)

    Текущее время: 09-Май 05:41

    Часовой пояс: UTC + 5



    Вы не можете начинать темы
    Вы не можете отвечать на сообщения
    Вы не можете редактировать свои сообщения
    Вы не можете удалять свои сообщения
    Вы не можете голосовать в опросах
    Вы не можете прикреплять файлы к сообщениям
    Вы не можете скачивать файлы