Уважаемые гости сайта! Добро Пожаловать на наш торрент трекер,где Вы можете бесплатно скачать любой Софт,Фильмы,Музыку и многое другое! А так же постоянно ведется набор модераторов и релизеров. Зарегистрируйтесь сейчас, чтобы получить доступ ко всем функциям. После регистрации или входа на сайт вы сможете создавать темы, отвечать на сообщения и скачивать файлы.

Навигация по Торрент раздачам и Форум и Стол заказов и Группы

 Любимый во Франксе / Darling in the Franxx [TV-1] [24 из 24] (Нисигори Ацуси) [2018, Приключения, фантастика, меха, BDRip-HEVC 1080p] MVO (Kansai, Crunchyroll, AniLibria)

Главная  Аниме  Сериалы  Аниме Сериалы (HD)
Статистика раздачи
Скачал: [ 2 ]
 
     
 
 
 
Автор Сообщение
  • Создавать темы 08-Янв-2021 19:25

    Любимый во Франксе / Darling in the Franxx-- Год выхода: 2018
    Жанр: Приключения, фантастика, меха
    Страна: Япония
    Студия: Trigger
    Продолжительность: 00:24:02
    Перевод:
    Профессиональный многоголосый (Kansai)
    Профессиональный многоголосый (Crunchyroll)
    Любительский многоголосый (AniLibria)-Режиссер: Нисигори Ацуси-В ролях: Уэмура Юто, Томацу Харука, Итиносэ Кана, Умэхара Юйтиро-О фильме: Далекое будущее. Земля в руинах, и на остатки человечества наводят ужас таинственные гигантские формы жизни, известные как кёрю — «ревущие драконы». Чтобы противостоять им, люди создали передвижное фортификационное сооружение, названное Плантацией, где растут и обучаются юные пилоты роботов Франкс.
    Единственная цель, ради которой живут эти дети, — уничтожение кёрю после прохождения специальной подготовки. Но чтобы управлять роботом — необходимо двое: мужчина и женщина, «тычинка» и «пестик». И если один не справляется, статуса пилота лишаются оба, что и для того и для другого значит ни много ни мало утратить смысл существования.
    Хиро считали одаренным. До тех пор, пока он не провалился на экзамене вместе со своей напарницей. Птица, которая никогда не взлетит, — так чувствовал себя мальчик с того времени и даже не догадывался, что скоро встретит человека с похожей судьбой...
    «Убийца напарников», рогатая девчонка, в жилах которой течет кровь кёрю. «Станешь ли ты моим милым?» — спросила она не то шутки ради, не то — всерьез. И для Хиро вдруг снова нашлось место в мире...-Качество: BDRip-HEVC 1080p
    Формат: MKV
    Видео: x265, 1920x1080, 3072 kbps, 23.976 fps
    Аудио (Rus(int)): AC-3, 192 kbps, 48,0 KHz, 2 ch | [Kansai]
    Аудио (Rus(int)): AC-3, 192 kbps, 48,0 KHz, 2 ch | [Crunchyroll]
    Аудио (Rus(int)): AC-3, 192 kbps, 48,0 KHz, 2 ch | [AniLibria]
    Аудио (Rus(int)): AC-3, 192 kbps, 48,0 KHz, 2 ch | [Original]
    Субтитры: русские (встроенные полный перевод, ASS) - Crunchyroll--

    MI

    Общее
    Уникальный идентификатор : 181495013140776350906512973371599549454 (0x888AAB05BFD33070754A840F3814F40E)
    Полное имя : I:\Anime\Darling in the FranXX [x265]\Darling in the FranXX 01.mkv
    Формат : Matroska
    Версия формата : Version 4
    Размер файла : 267 Мбайт
    Продолжительность : 24 м. 3 с.
    Общий поток : 1554 Кбит/сек
    Название фильма : DARLING in the FRANXX Vol.1
    Дата кодирования : UTC 2019-04-23 10:13:16
    Программа кодирования : mkvmerge v33.0.0 ('A Little Bit of Madness') 64-bit
    Библиотека кодирования : libebml v1.3.7 + libmatroska v1.5.0
    Обложка : Yes
    Attachments : cover.jpg
    Видео
    Идентификатор : 1
    Формат : HEVC
    Формат/Информация : High Efficiency Video Coding
    Профиль формата : Main 10@L4@Main
    Идентификатор кодека : V_MPEGH/ISO/HEVC
    Продолжительность : 24 м. 2 с.
    Битрейт : 785 Кбит/сек
    Ширина : 1920 пикселей
    Высота : 1080 пикселей
    Соотношение сторон : 16:9
    Режим частоты кадров : Постоянный
    Частота кадров : 23,976 (24000/1001) кадра/сек
    Цветовое пространство : YUV
    Субдискретизация насыщенности : 4:2:0
    Битовая глубина : 10 бит
    Бит/(Пиксели*Кадры) : 0.016
    Размер потока : 135 Мбайт (50%)
    Библиотека кодирования : x265 2.7+348-0968a46d6ba4:[Windows][MSVC 1914][64 bit] 10bit
    Настройки программы : cpuid=1064959 / frame-threads=3 / numa-pools=8 / wpp / no-pmode / no-pme / no-psnr / no-ssim / log-level=2 / input-csp=1 / input-res=1920x1080 / interlace=0 / total-frames=34674 / level-idc=0 / high-tier=1 / uhd-bd=0 / ref=4 / no-allow-non-conformance / no-repeat-headers / annexb / no-aud / no-hrd / info / hash=0 / no-temporal-layers / open-gop / min-keyint=23 / keyint=250 / gop-lookahead=0 / bframes=8 / b-adapt=2 / b-pyramid / bframe-bias=0 / rc-lookahead=80 / lookahead-slices=0 / scenecut=40 / radl=0 / no-intra-refresh / ctu=64 / min-cu-size=8 / no-rect / no-amp / max-tu-size=32 / tu-inter-depth=1 / tu-intra-depth=1 / limit-tu=0 / rdoq-level=2 / dynamic-rd=0.00 / no-ssim-rd / signhide / no-tskip / nr-intra=0 / nr-inter=0 / no-constrained-intra / no-strong-intra-smoothing / max-merge=3 / limit-refs=2 / limit-modes / me=3 / subme=5 / merange=57 / temporal-mvp / weightp / weightb / no-analyze-src-pics / deblock=-2:-2 / no-sao / no-sao-non-deblock / rd=4 / no-early-skip / rskip / no-fast-intra / no-tskip-fast / no-cu-lossless / no-b-intra / no-splitrd-skip / rdpenalty=0 / psy-rd=0.35 / psy-rdoq=1.00 / no-rd-refine / no-lossless / cbqpoffs=0 / crqpoffs=0 / rc=crf / crf=24.0 / qcomp=0.60 / qpstep=4 / stats-write=0 / stats-read=0 / ipratio=1.40 / pbratio=1.30 / aq-mode=2 / aq-strength=1.00 / cutree / zone-count=0 / no-strict-cbr / qg-size=32 / no-rc-grain / qpmax=69 / qpmin=0 / no-const-vbv / sar=0 / overscan=0 / videoformat=5 / range=0 / colorprim=1 / transfer=2 / colormatrix=2 / chromaloc=0 / display-window=0 / max-cll=0,0 / min-luma=0 / max-luma=1023 / log2-max-poc-lsb=8 / vui-timing-info / vui-hrd-info / slices=1 / no-opt-qp-pps / no-opt-ref-list-length-pps / no-multi-pass-opt-rps / scenecut-bias=0.05 / no-opt-cu-delta-qp / no-aq-motion / no-hdr / no-hdr-opt / no-dhdr10-opt / no-idr-recovery-sei / analysis-reuse-level=5 / scale-factor=0 / refine-intra=0 / refine-inter=0 / refine-mv=0 / no-limit-sao / ctu-info=0 / no-lowpass-dct / refine-mv-type=0 / copy-pic=1 / max-ausize-factor=1.0 / no-dynamic-refine / no-single-sei
    Язык : Japanese
    Default : Да
    Forced : Нет
    Цветовой диапазон : Limited
    Основные цвета : BT.709
    Аудио #1
    Идентификатор : 2
    Формат : AC-3
    Формат/Информация : Audio Coding 3
    Коммерческое название : Dolby Digital
    Идентификатор кодека : A_AC3
    Продолжительность : 24 м. 2 с.
    Вид битрейта : Постоянный
    Битрейт : 192 Кбит/сек
    Каналы : 2 канала
    ChannelLayout : L R
    Частота : 48,0 КГц
    Частота кадров : 31,250 кадров/сек (1536 SPF)
    Метод сжатия : С потерями
    Размер потока : 33,0 Мбайт (12%)
    Язык : Russian
    ServiceKind/String : Complete Main
    Default : Да
    Forced : Нет
    Аудио #2
    Идентификатор : 3
    Формат : AC-3
    Формат/Информация : Audio Coding 3
    Коммерческое название : Dolby Digital
    Идентификатор кодека : A_AC3
    Продолжительность : 24 м. 3 с.
    Вид битрейта : Постоянный
    Битрейт : 192 Кбит/сек
    Каналы : 2 канала
    ChannelLayout : L R
    Частота : 48,0 КГц
    Частота кадров : 31,250 кадров/сек (1536 SPF)
    Метод сжатия : С потерями
    Размер потока : 33,0 Мбайт (12%)
    Язык : Russian
    ServiceKind/String : Complete Main
    Default : Нет
    Forced : Нет
    Аудио #3
    Идентификатор : 4
    Формат : AC-3
    Формат/Информация : Audio Coding 3
    Коммерческое название : Dolby Digital
    Идентификатор кодека : A_AC3
    Продолжительность : 24 м. 1 с.
    Вид битрейта : Постоянный
    Битрейт : 192 Кбит/сек
    Каналы : 2 канала
    ChannelLayout : L R
    Частота : 48,0 КГц
    Частота кадров : 31,250 кадров/сек (1536 SPF)
    Метод сжатия : С потерями
    Размер потока : 33,0 Мбайт (12%)
    Язык : Russian
    ServiceKind/String : Complete Main
    Default : Нет
    Forced : Нет
    Аудио #4
    Идентификатор : 6
    Формат : AC-3
    Формат/Информация : Audio Coding 3
    Коммерческое название : Dolby Digital
    Идентификатор кодека : A_AC3
    Продолжительность : 24 м. 2 с.
    Вид битрейта : Постоянный
    Битрейт : 192 Кбит/сек
    Каналы : 2 канала
    ChannelLayout : L R
    Частота : 48,0 КГц
    Частота кадров : 31,250 кадров/сек (1536 SPF)
    Метод сжатия : С потерями
    Размер потока : 33,0 Мбайт (12%)
    Язык : Japanese
    ServiceKind/String : Complete Main
    Default : Нет
    Forced : Нет
    Текст #1
    Идентификатор : 5
    Формат : ASS
    Идентификатор кодека : S_TEXT/ASS
    Идентификатор кодека/Информация : Advanced Sub Station Alpha
    Продолжительность : 22 м. 57 с.
    Битрейт : 6 бит/сек
    ElementCount : 12
    Метод сжатия : Без потерь
    Размер потока : 1,06 Кбайт (0%)
    Язык : Russian
    Default : Да
    Forced : Нет
    Текст #2
    Идентификатор : 7
    Формат : ASS
    Идентификатор кодека : S_TEXT/ASS
    Идентификатор кодека/Информация : Advanced Sub Station Alpha
    Продолжительность : 23 м. 51 с.
    Битрейт : 160 бит/сек
    ElementCount : 355
    Метод сжатия : Без потерь
    Размер потока : 28,1 Кбайт (0%)
    Язык : Russian
    Default : Нет
    Forced : Нет
    Меню
    00:00:00.000 : ja:Chapter 01
    00:02:51.066 : ja:Chapter 02
    00:10:49.054 : ja:Chapter 03

    _________________
    Показать сообщения:    
    Главная  Аниме  Сериалы  Аниме Сериалы (HD)

    Текущее время: 09-Май 06:26

    Часовой пояс: UTC + 5



    Вы не можете начинать темы
    Вы не можете отвечать на сообщения
    Вы не можете редактировать свои сообщения
    Вы не можете удалять свои сообщения
    Вы не можете голосовать в опросах
    Вы не можете прикреплять файлы к сообщениям
    Вы не можете скачивать файлы