Уважаемые гости сайта! Добро Пожаловать на наш торрент трекер,где Вы можете бесплатно скачать любой Софт,Фильмы,Музыку и многое другое! А так же постоянно ведется набор модераторов и релизеров. Зарегистрируйтесь сейчас, чтобы получить доступ ко всем функциям. После регистрации или входа на сайт вы сможете создавать темы, отвечать на сообщения и скачивать файлы.

Навигация по Торрент раздачам и Форум и Стол заказов и Группы

 Воздушный бой / Shadow in the Cloud (Роузэнн Лианг / Roseanne Liang) [2020, Ужасы, военный, боевик, WEB-DL 1080p] MVO (HDrezka Studio)

Главная  Кинофильмы  Зарубежные кинофильмы
Статистика раздачи
Скачал: [ 1 ]
 
     
 
 
 
Автор Сообщение
  • kisel ®
  • Не в сети

    Автор темы

  • 7467
  • Пол: Мужской

  • Стаж: 4 месяца 8 дней

  • Сообщений: 76

  • Провайдер: UzOnline UzOnline

  • Карма: 0


  • Нет нарушения:

  • Награды: Нет
  • Создавать темы 06-Янв-2021 14:52

    Информация о фильме
    Название: Воздушный бой
    Оригинальное название: Shadow in the Cloud
    Год выхода: 2020
    Жанр: Ужасы, боевик, военный
    Режиссер: Роузэнн Лианг
    В ролях: Хлоя Грейс Морец, Ник Робинсон, Бела Коале, Тейлор Джон Смит, Каллэн Мулвей, Бенедикт Уолл, Байрон Колл, Джо Уитковски, Лиам Легг, Ашер Брайдл
    О фильме:
    В разгар Второй мировой войны бомбардировщик B-17 «Летающая крепость» сопровождает груз под грифом «секретно». Команду возглавила молодая женщина – капитан Мод Гарднер, что вызвало скепсис у суровых бойцов. Едва поднявшись в воздух, экипаж вступает в бой с японскими истребителями, а на борту вынужден отражать внезапное нападение зловещего существа. Капитан Мод должна совершить невозможное – убедить команду в своей состоятельности, справиться с монстром и при этом сохранить тайну загадочного груза.

    Страна: Новая Зеландия, США
    Студия: Four Knights Film, Rhea Films
    Продолжительность: 01:23:23
    Перевод: Профессиональный (многоголосый закадровый) - HDrezka Studio
    Файл
    Качество: WEB-DL 1080p | HDrezka Studio
    Видео: AVC/H.264, 1920x800, ~8437 Кbps, 23,976 fps
    Звук:
    Аудио 1: AC3, 6 ch, 448 Kbps - Русский (censored)
    Аудио 2: AC3, 6 ch, 448 Kbps - Русский (uncensored)
    Аудио 3: E-AC3, 6 ch, 640 Kbps - Английский
    Субтитры: русские (Forced), английские (SDH)

    Mediainfo

    Общее
    Уникальный идентификатор : 36689586728846778625830377437423199010 (0x1B9A284995ECE9CA011524B1C67FE322)
    Полное имя : Shadow in the Cloud.2020.WEB-DL.1080p.W.mkv
    Формат : Matroska
    Версия формата : Version 4
    Размер файла : 5,81 Гбайт
    Продолжительность : 1 ч. 23 м.
    Общий поток : 9 976 Кбит/сек
    Название фильма : Shadow in the Cloud.2020.WEB-DL.1080p.W
    Дата кодирования : UTC 2021-01-05 22:13:03
    Программа кодирования : mkvmerge v23.0.0 ('The Bride Said No') 64-bit
    Библиотека кодирования : libebml v1.3.6 + libmatroska v1.4.9
    Видео
    Идентификатор : 1
    Формат : AVC
    Формат/Информация : Advanced Video Codec
    Профиль формата : High@L4
    Настройки формата : CABAC / 4 Ref Frames
    Параметр CABAC формата : Да
    Параметр RefFrames формата : 4 кадра
    Идентификатор кодека : V_MPEG4/ISO/AVC
    Продолжительность : 1 ч. 23 м.
    Вид битрейта : Постоянный
    Битрейт : 8 437 Кбит/сек
    Номинальный битрейт : 10 000 Кбит/сек
    Ширина : 1 920 пикселей
    Высота : 800 пикселей
    Соотношение сторон : 2,40:1
    Режим частоты кадров : Постоянный
    Частота кадров : 23,976 (24000/1001) кадра/сек
    Цветовое пространство : YUV
    Субдискретизация насыщенности : 4:2:0
    Битовая глубина : 8 бит
    Тип развёртки : Прогрессивная
    Бит/(Пиксели*Кадры) : 0.229
    Размер потока : 4,91 Гбайт (85%)
    Язык : English
    Default : Да
    Forced : Нет
    Цветовой диапазон : Limited
    Основные цвета : BT.709
    Характеристики трансфера : BT.709
    Коэффициенты матрицы : BT.709
    Аудио #1
    Идентификатор : 2
    Формат : AC-3
    Формат/Информация : Audio Coding 3
    Коммерческое название : Dolby Digital
    Идентификатор кодека : A_AC3
    Продолжительность : 1 ч. 23 м.
    Вид битрейта : Постоянный
    Битрейт : 448 Кбит/сек
    Каналы : 6 каналов
    Channel layout : L R C LFE Ls Rs
    Частота : 48,0 КГц
    Частота кадров : 31,250 кадров/сек (1536 SPF)
    Метод сжатия : С потерями
    Размер потока : 267 Мбайт (4%)
    Заголовок : MVO HDRezka Studio (cenzored)
    Язык : Russian
    Service kind : Complete Main
    Default : Да
    Forced : Нет
    Аудио #2
    Идентификатор : 3
    Формат : AC-3
    Формат/Информация : Audio Coding 3
    Коммерческое название : Dolby Digital
    Идентификатор кодека : A_AC3
    Продолжительность : 1 ч. 23 м.
    Вид битрейта : Постоянный
    Битрейт : 448 Кбит/сек
    Каналы : 6 каналов
    Channel layout : L R C LFE Ls Rs
    Частота : 48,0 КГц
    Частота кадров : 31,250 кадров/сек (1536 SPF)
    Метод сжатия : С потерями
    Размер потока : 267 Мбайт (4%)
    Заголовок : MVO HDRezka Studio (uncenzored)
    Язык : Russian
    Service kind : Complete Main
    Default : Нет
    Forced : Нет
    Аудио #3
    Идентификатор : 4
    Формат : E-AC-3
    Формат/Информация : Enhanced AC-3
    Коммерческое название : Dolby Digital Plus
    Идентификатор кодека : A_EAC3
    Продолжительность : 1 ч. 23 м.
    Вид битрейта : Постоянный
    Битрейт : 640 Кбит/сек
    Каналы : 6 каналов
    Channel layout : L R C LFE Ls Rs
    Частота : 48,0 КГц
    Частота кадров : 31,250 кадров/сек (1536 SPF)
    Метод сжатия : С потерями
    Размер потока : 382 Мбайт (6%)
    Язык : English
    Service kind : Complete Main
    Default : Нет
    Forced : Нет
    Текст #1
    Идентификатор : 5
    Формат : UTF-8
    Идентификатор кодека : S_TEXT/UTF8
    Идентификатор кодека/Информация : UTF-8 Plain Text
    Продолжительность : 1 ч. 15 м.
    Битрейт : 0 бит/сек
    Count of elements : 12
    Размер потока : 471 байт (0%)
    Заголовок : Forced
    Язык : Russian
    Default : Да
    Forced : Нет
    Текст #2
    Идентификатор : 6
    Формат : UTF-8
    Идентификатор кодека : S_TEXT/UTF8
    Идентификатор кодека/Информация : UTF-8 Plain Text
    Продолжительность : 1 ч. 17 м.
    Битрейт : 91 бит/сек
    Count of elements : 1688
    Размер потока : 51,8 Кбайт (0%)
    Заголовок : SDH
    Язык : English
    Default : Нет
    Forced : Нет

    Скриншоты

    Показать сообщения:    
    Главная  Кинофильмы  Зарубежные кинофильмы

    Текущее время: 09-Май 06:03

    Часовой пояс: UTC + 5



    Вы не можете начинать темы
    Вы не можете отвечать на сообщения
    Вы не можете редактировать свои сообщения
    Вы не можете удалять свои сообщения
    Вы не можете голосовать в опросах
    Вы не можете прикреплять файлы к сообщениям
    Вы не можете скачивать файлы