Уважаемые гости сайта! Добро Пожаловать на наш торрент трекер,где Вы можете бесплатно скачать любой Софт,Фильмы,Музыку и многое другое! А так же постоянно ведется набор модераторов и релизеров. Зарегистрируйтесь сейчас, чтобы получить доступ ко всем функциям. После регистрации или входа на сайт вы сможете создавать темы, отвечать на сообщения и скачивать файлы.

Навигация по Торрент раздачам и Форум и Стол заказов и Группы

 Преступить черту / No matarás (Давид Виктори) [2020,Боевик, триллер, драма, криминал, детектив, приключения WEB-DLRip-AVC] DUB (iTunes)

Главная  Кинофильмы  Зарубежные кинофильмы  HD-AVC
Статистика раздачи
Нет
 
     
 
 
 
Автор Сообщение
  • kisel ®
  • Не в сети

    Автор темы

  • 7467
  • Пол: Мужской

  • Стаж: 4 месяца 8 дней

  • Сообщений: 76

  • Провайдер: UzOnline UzOnline

  • Карма: 0


  • Нет нарушения:

  • Награды: Нет
  • Создавать темы 03-Янв-2021 11:47

    Информация о фильме
    Название: Преступить черту
    Оригинальное название: No matarás
    Год выхода: 2020
    Жанр: Боевик, триллер, драма, криминал, детектив, приключения
    Режиссер: Давид Виктори
    В ролях: Марио Касас, Милена Смит, Элизабет Ларена, Фернандо Валдивьесо, Хавьер Мула, Алеикс Муньос, Андре Крютцер, Оскар Перес, Хави Силес, Мигель Анхель Гонсалес
    О фильме:
    После смерти отца Дани, решив изменить свою жизнь, планирует отправиться в кругосветное путешествие. Накануне поездки судьба сводит его с загадочной и чувственной красавицей Милой. Но романтическая идиллия оборачивается кошмаром. В отношения влюбленных вторгается сжигаемый ревностью бывший возлюбленный Милы. Встреча, которая грозила Дани смертельной опасностью, приводит к шокирующим для самого героя последствиям.


    Страна: Испания
    Студия: Castelao Pictures, Castelao Productions, Filmax, Movistar+, Radio Televisión Española (RTVE)
    Продолжительность: 01:35:53
    Перевод: Профессиональный (полное дублирование) | iTunes
    Файл
    Качество: WEB-DLRip-AVC
    Формат: MKV
    Кодек: AVC
    Видео: MPEG-4 AVC, 1024x576, 24.000 fps, 1782 kbps
    Аудио: AC3, 6 ch, 48 kHz, 384 kbps | русский | iTunes
    Субтитры: Russian (Full)

    MediaInfo

    General
    Complete name : E:\No.mataras.2020.WEB-DLRip\No.mataras.2020.WEB-DLRip.avi
    Format : AVI
    Format/Info : Audio Video Interleave
    File size : 1.46 GiB
    Duration : 1 h 35 min
    Overall bit rate : 2 180 kb/s
    Writing application : VirtualDubModRus 1.5.10.2 (build 2542/release)
    Writing library : VirtualDubMod build 2542/release
    Video
    ID : 0
    Format : MPEG-4 Visual
    Format profile : Advanced Simple@L5
    Format settings : BVOP1 / Custom Matrix
    Format settings, BVOP : 1
    Format settings, QPel : No
    Format settings, GMC : No warppoints
    Format settings, Matrix : Custom
    Codec ID : XVID
    Codec ID/Hint : XviD
    Duration : 1 h 35 min
    Bit rate : 1 786 kb/s
    Width : 704 pixels
    Height : 400 pixels
    Display aspect ratio : 16:9
    Frame rate : 24.000 FPS
    Color space : YUV
    Chroma subsampling : 4:2:0
    Bit depth : 8 bits
    Scan type : Progressive
    Compression mode : Lossy
    Bits/(Pixel*Frame) : 0.264
    Stream size : 1.20 GiB (82%)
    Writing library : XviD 73
    Audio
    ID : 1
    Format : AC-3
    Format/Info : Audio Coding 3
    Commercial name : Dolby Digital
    Codec ID : 2000
    Duration : 1 h 35 min
    Bit rate mode : Constant
    Bit rate : 384 kb/s
    Channel(s) : 6 channels
    Channel layout : L R C LFE Ls Rs
    Sampling rate : 48.0 kHz
    Frame rate : 31.250 FPS (1536 SPF)
    Compression mode : Lossy
    Stream size : 263 MiB (18%)
    Alignment : Split across interleaves
    Interleave, duration : 42 ms (1.00 video frame)
    Interleave, preload duration : 500 ms
    Service kind : Complete Main

    Скриншоты



    Последний раз редактировалось: kisel (2021-01-03 16:33), всего редактировалось 1 раз

      -746

    Создавать темы 03-Янв-2021 15:13 (спустя 3 часа)

    Топик был перенесен из форума Зарубежные кинофильмы в форум HD-AVC


    -InVoKeR-
    Показать сообщения:    
    Главная  Кинофильмы  Зарубежные кинофильмы  HD-AVC

    Текущее время: 09-Май 07:15

    Часовой пояс: UTC + 5



    Вы не можете начинать темы
    Вы не можете отвечать на сообщения
    Вы не можете редактировать свои сообщения
    Вы не можете удалять свои сообщения
    Вы не можете голосовать в опросах
    Вы не можете прикреплять файлы к сообщениям
    Вы не можете скачивать файлы