Веном / Venom (Рубен Фляйшер / Ruben Fleischer) [2018, боевик, фантастика, триллер, ужасы, BDRip-AVC] :: UZTOR.PW Лучший трекер в зоне TAS-IX!
Регистрация ·
Имя: Пароль:  
· Забыли пароль?
Уважаемые гости сайта! Добро Пожаловать на наш торрент трекер,где Вы можете бесплатно скачать любой Софт,Фильмы,Музыку и многое другое! А так же постоянно ведется набор модераторов и релизеров. Зарегистрируйтесь сейчас, чтобы получить доступ ко всем функциям. После регистрации или входа на сайт вы сможете создавать темы, отвечать на сообщения и скачивать файлы.

Навигация по Торрент раздачам и Форум

До нового обновления Торрент-Трекер осталось

 Веном / Venom (Рубен Фляйшер / Ruben Fleischer) [2018, боевик, фантастика, триллер, ужасы, BDRip-AVC]

Главная  Кинофильмы  Зарубежные кинофильмы  HD-AVC
Статистика раздачи
Нет
 
     
 
 
Автор Сообщение
  • -InVoKeR- ®
  • Не в сети
  • 5057
  • VIP пользователь

  • Пол: Мужской

  • Стаж: 1 год

  • Сообщений: 420

  • Откуда: uztor.pw

  • Провайдер: UzOnline UzOnline

  • Тарифный план: Unlim 4 (Мир: 4 Мбит/с, Tas-ix: 100Мбит/с)

  • Steam: 76561198442747843

  • Telegram: i_Invoker

  • Карма: 1128


  • Наличие запрета:

  • Награды: 22 (Подробнее)
    Admin (Количество: 1) Авторитет (Количество: 1) Активный релизер 1 (Количество: 1) Активный релизер 2 (Количество: 1) Активный сидер 1 (Количество: 1)
  • Создавать темы 06-Июн-2019 19:06

    Веном / Venom-- Год выпуска: 2018
    Производство: США, Китай
    Жанр: боевик, фантастика, триллер, ужасы
    Продолжительность: 01:52:08
    Перевод: Дубляж [Blu-ray CEE]
    Субтитры: русские (полные + форс.)-Режиссер: Рубен Фляйшер-В ролях: Том Харди, Мишель Уильямс, Риз Ахмед, Рейд Скотт, Марчелла Браджио, Вуди Харрельсон, Дженни Слейт, Пегги Лу, Мак Брандт, Рон Сефас Джонс, Мишель Ли (II), Мелора Уолтерс, Сопе Алуко-О фильме: Что если в один прекрасный день в тебя вселяется существо-симбиот, которое наделяет тебя сверхчеловеческими способностями? Вот только Веном - симбиот совсем недобрый, и договориться с ним невозможно. Хотя нужно ли договариваться?.. Ведь в какой-то момент ты понимаешь, что быть плохим вовсе не так уж и плохо. Так даже веселее. В мире и так слишком много супергероев! Мы - Веном!- -Качество: BDRip-AVC
    Формат: MKV
    Видео: AVC, 960x400 (2,40:1), 1415 kbps, 23,976 fps
    Аудио: AC3 / 5.1 / 48 kHz / 448 kbps / 16 bit--

    MediaInfo

    General
    Unique ID : 185309962267999251697896114220072147919 (0x8B6966894C9E110C9AE4C6026AB79BCF)
    Complete name : D:\Марвел Коллекция.Marvel Collection\Venom.2018.RUS.BDRip-AVC.mkv
    Format : Matroska
    Format version : Version 4 / Version 2
    File size : 1.46 GiB
    Duration : 1h 52mn
    Overall bit rate : 1 865 Kbps
    Movie name : Venom (2018)
    Encoded date : UTC 2019-01-04 20:31:17
    Writing application : mkvmerge v5.9.0 ('On The Loose') built on Dec 15 2012 16:39:58
    Writing library : libebml v1.3.0 + libmatroska v1.4.0
    Video
    ID : 1
    Format : AVC
    Format/Info : Advanced Video Codec
    Format profile : High@L4.1
    Format settings, CABAC : Yes
    Format settings, ReFrames : 12 frames
    Codec ID : V_MPEG4/ISO/AVC
    Duration : 1h 52mn
    Bit rate : 1 415 Kbps
    Width : 960 pixels
    Height : 400 pixels
    Display aspect ratio : 2.40:1
    Frame rate mode : Constant
    Frame rate : 23.976 fps
    Color space : YUV
    Chroma subsampling : 4:2:0
    Bit depth : 8 bits
    Scan type : Progressive
    Bits/(Pixel*Frame) : 0.154
    Stream size : 1.08 GiB (74%)
    Title : potroks
    Writing library : x264 core 157 r2935M 545de2f
    Encoding settings : cabac=1 / ref=12 / deblock=1:-1:-1 / analyse=0x3:0x133 / me=umh / subme=11 / psy=1 / psy_rd=1.00:0.10 / mixed_ref=1 / me_range=32 / chroma_me=1 / trellis=2 / 8x8dct=1 / cqm=0 / deadzone=21,11 / fast_pskip=0 / chroma_qp_offset=-3 / threads=9 / lookahead_threads=2 / sliced_threads=0 / nr=0 / decimate=0 / interlaced=0 / bluray_compat=0 / constrained_intra=0 / bframes=12 / b_pyramid=2 / b_adapt=2 / b_bias=0 / direct=3 / weightb=1 / open_gop=0 / weightp=2 / keyint=240 / keyint_min=23 / scenecut=40 / intra_refresh=0 / rc_lookahead=100 / rc=2pass / mbtree=0 / bitrate=1415 / ratetol=1.0 / qcomp=0.70 / qpmin=0 / qpmax=69 / qpstep=4 / cplxblur=20.0 / qblur=0.5 / vbv_maxrate=50000 / vbv_bufsize=50000 / nal_hrd=none / filler=0 / ip_ratio=1.35 / pb_ratio=1.25 / aq=1:0.80
    Language : English
    Default : Yes
    Forced : No
    Audio
    ID : 2
    Format : AC-3
    Format/Info : Audio Coding 3
    Mode extension : CM (complete main)
    Format settings, Endianness : Big
    Codec ID : A_AC3
    Duration : 1h 52mn
    Bit rate mode : Constant
    Bit rate : 448 Kbps
    Channel(s) : 6 channels
    Channel positions : Front: L C R, Side: L R, LFE
    Sampling rate : 48.0 KHz
    Bit depth : 16 bits
    Compression mode : Lossy
    Stream size : 359 MiB (24%)
    Title : Dub | DD 5.1 @ 448 kbps - Blu-ray CEE
    Language : Russian
    Default : Yes
    Forced : No
    Text #1
    ID : 3
    Format : UTF-8
    Codec ID : S_TEXT/UTF8
    Codec ID/Info : UTF-8 Plain Text
    Title : Forced
    Language : Russian
    Default : Yes
    Forced : No
    Text #2
    ID : 4
    Format : UTF-8
    Codec ID : S_TEXT/UTF8
    Codec ID/Info : UTF-8 Plain Text
    Title : iTunes
    Language : Russian
    Default : No
    Forced : No
    Text #3
    ID : 5
    Format : UTF-8
    Codec ID : S_TEXT/UTF8
    Codec ID/Info : UTF-8 Plain Text
    Title : Focs
    Language : Russian
    Default : No
    Forced : No
    Menu
    00:00:00.000 : en:00:00:00.000
    00:02:35.155 : en:00:02:35.155
    00:02:59.846 : en:00:02:59.846
    00:03:34.089 : en:00:03:34.089
    00:03:52.441 : en:00:03:52.441
    00:06:01.695 : en:00:06:01.695
    00:09:31.696 : en:00:09:31.696
    00:11:06.291 : en:00:11:06.291
    00:15:12.578 : en:00:15:12.578
    00:15:29.470 : en:00:15:29.470
    00:16:35.161 : en:00:16:35.161
    00:26:24.166 : en:00:26:24.166
    00:32:46.047 : en:00:32:46.047
    00:35:32.756 : en:00:35:32.756
    00:36:11.086 : en:00:36:11.086
    00:36:32.941 : en:00:36:32.941
    00:37:14.441 : en:00:37:14.441
    00:46:51.642 : en:00:46:51.642
    00:48:13.432 : en:00:48:13.432
    00:53:37.673 : en:00:53:37.673
    00:54:21.258 : en:00:54:21.258
    00:54:29.975 : en:00:54:29.975
    00:55:26.365 : en:00:55:26.365
    00:56:19.084 : en:00:56:19.084
    00:56:43.317 : en:00:56:43.317
    00:57:01.627 : en:00:57:01.627
    00:58:54.489 : en:00:58:54.489
    00:59:04.082 : en:00:59:04.082
    01:00:36.591 : en:01:00:36.591
    01:05:59.581 : en:01:05:59.581
    01:07:36.928 : en:01:07:36.928
    01:17:38.028 : en:01:17:38.028
    01:23:11.820 : en:01:23:11.820
    01:23:25.083 : en:01:23:25.083
    01:24:14.049 : en:01:24:14.049
    01:27:21.236 : en:01:27:21.236

    _________________
    Показать сообщения:    
    Главная  Кинофильмы  Зарубежные кинофильмы  HD-AVC

    Текущее время: 08-Дек 00:17

    Часовой пояс: UTC + 5



    Вы не можете начинать темы
    Вы не можете отвечать на сообщения
    Вы не можете редактировать свои сообщения
    Вы не можете удалять свои сообщения
    Вы не можете голосовать в опросах
    Вы не можете прикреплять файлы к сообщениям
    Вы не можете скачивать файлы