Мастера меча онлайн / Sword Art Online [1-сезон] [Серии 25 из 25] [2012, приключения, фэнтези, романтика, драма, BDRip-HEVC 1080p] [СВ-дубль] [AniLibria] :: UZTOR.PW Трекер для всех
Регистрация ·
Имя: Пароль:  
· Забыли пароль?

Навигация по Торрент раздачам и Форум

 Мастера меча онлайн / Sword Art Online [1-сезон] [Серии 25 из 25] [2012, приключения, фэнтези, романтика, драма, BDRip-HEVC 1080p] [СВ-дубль] [AniLibria]

Главная  Аниме  Сериалы  Аниме Сериалы (HD)
Статистика раздачи
Нет
 
     
 
 
Автор Сообщение
  • -InVoKeR- ®
  • Не в сети
  • 5057
  • VIP пользователь

  • Пол: Мужской

  • Стаж: 9 месяцев 1 день

  • Сообщений: 283

  • Откуда: uztor.pw

  • Провайдер: UzOnline UzOnline

  • Тарифный план: Unlim 4 (99к, Мир: 4 Мбит/с, Tas-ix: 100Мбит/с)

  • Карма: 1118


  • Создавать темы 04-Июн-2019 15:13

    Мастера меча онлайн / Sword Art Online -
    Год выхода: 2012
    Страна: Япония
    Жанр: приключения, фэнтези, романтика, драма
    Студия: A-1 Pictures Inc.
    Продолжительность: 25х ~00:23:40-Перевод:
    Дубляж | СВ-дубль
    Любительский многоголосый | AniLibria-Режиссер: Ито Томохико-В ролях: Ёсицугу Мацуока, Харука Томацу, Ито Канаэ, Аяна Такэтацу, Миюки Савасиро, Аяхи Такагаки, Рина Хидака, Синъя Такахаси, Хироки Ясумото, Соитиро Хоси-О фильме:
    И вот вышла многопользовательская игра нового поколения — игра, где смерть реальна и бегство невозможно. Единственный выход — дойти до конца. А называется игра «Sword Art Online».
    Не зная этой правды, десять тысяч игроков, используя нейрошлемы компании «Агис», зарегистрировались одновременно и тем самым положили начало смертельной битве, длящейся уже два долгих года.
    Главный герой Кирито принимает правила игры и не собирается сдаваться. В этом игровом мире, в гигантской парящей крепости под названием Айнкрад, он стал игроком-одиночкой. Чтобы выйти из игры, ему придётся пройти все 100 этажей этого огромного сооружения. Однако, не в силах противостоять настойчивости мастера рапиры Асуны, он начинает работать с ней в паре. Возможно, эта встреча предопределит судьбу всей игры...-Качество: BDRip-HEVC 1080p
    Формат: MKV
    Видео: x265, 1920x1080, 1231 kbps, 23.976 fps
    Аудио #1: RUS AC-3, 192 kbps, 48,0 KHz, 2 ch | [СВ-дубль]
    Аудио #2: RUS AC-3, 192 kbps, 48,0 KHz, 2 ch | [AniLibria]
    Аудио #3: Japanese AAC, 112 kbps, 44,1 KHz, 2 ch | [Original]
    Субтитры: русские (встроенные полный перевод, ASS)--

    MediaInfo

    General
    Unique ID : 37447385290551105826240734350534100997 (0x1C2C1AA422AB4D4CB7CF21F4C819C805)
    Complete name : Sword Art Online [S01-FULL] BDRip-HEVC 1080p\Sword Art Online 01.mkv
    Format : Matroska
    Format version : Version 4 / Version 2
    File size : 297 MiB
    Duration : 23mn 42s
    Overall bit rate : 1 753 Kbps
    Movie name : Мастера Меча Онлайн 01. Мир мечей.
    Encoded date : UTC 2019-01-18 11:43:35
    Writing application : mkvmerge v30.1.0 ('Forever And More') 64-bit
    Writing library : libebml v1.3.6 + libmatroska v1.4.9
    DURATION : 00:23:42.635000000
    NUMBER_OF_FRAMES : 66686
    NUMBER_OF_BYTES : 19983572
    _STATISTICS_WRITING_APP : mkvmerge v30.1.0 ('Forever And More') 64-bit
    _STATISTICS_WRITING_DATE_UTC : 2019-01-18 11:43:35
    _STATISTICS_TAGS : BPS DURATION NUMBER_OF_FRAMES NUMBER_OF_BYTES
    Attachment : Yes / Yes / Yes / Yes / Yes / Yes / Yes / Yes / Yes / Yes / Yes / Yes
    Video
    ID : 4
    Format : V_MPEGH/ISO/HEVC
    Codec ID : V_MPEGH/ISO/HEVC
    Duration : 23mn 42s
    Width : 1 920 pixels
    Height : 1 080 pixels
    Display aspect ratio : 16:9
    Frame rate mode : Constant
    Frame rate : 23.976 fps
    Title : [bonkai77]
    Default : Yes
    Forced : No
    Audio #1
    ID : 1
    Format : AC-3
    Format/Info : Audio Coding 3
    Mode extension : CM (complete main)
    Format settings, Endianness : Big
    Codec ID : A_AC3
    Duration : 23mn 42s
    Bit rate mode : Constant
    Bit rate : 192 Kbps
    Channel(s) : 2 channels
    Channel positions : Front: L R
    Sampling rate : 48.0 KHz
    Bit depth : 16 bits
    Compression mode : Lossy
    Stream size : 32.6 MiB (11%)
    Title : Дубляж СВ-Дубль (Телеканал FAN)
    Language : Russian
    Default : Yes
    Forced : Yes
    Audio #2
    ID : 2
    Format : AC-3
    Format/Info : Audio Coding 3
    Mode extension : CM (complete main)
    Format settings, Endianness : Big
    Codec ID : A_AC3
    Duration : 23mn 42s
    Bit rate mode : Constant
    Bit rate : 192 Kbps
    Channel(s) : 2 channels
    Channel positions : Front: L R
    Sampling rate : 48.0 KHz
    Bit depth : 16 bits
    Compression mode : Lossy
    Stream size : 32.6 MiB (11%)
    Title : AniLibria
    Language : Russian
    Default : No
    Forced : No
    Audio #3
    ID : 5
    Format : AAC
    Format/Info : Advanced Audio Codec
    Format profile : LC
    Codec ID : A_AAC
    Duration : 23mn 42s
    Channel(s) : 2 channels
    Channel positions : Front: L R
    Sampling rate : 48.0 KHz
    Compression mode : Lossy
    Language : Japanese
    Default : No
    Forced : No
    Text
    ID : 3
    Format : ASS
    Codec ID : S_TEXT/ASS
    Codec ID/Info : Advanced Sub Station Alpha
    Compression mode : Lossless
    Language : Russian
    Default : Yes
    Forced : No
    Menu
    00:00:00.000 : en:Prologue
    00:02:26.001 : en:Part A
    00:11:02.996 : en:Part B
    00:21:46.013 : en:Ending
    00:23:15.978 : en:Part C
    00:23:34.977 : en:Next time
    Показать сообщения:    
    Главная  Аниме  Сериалы  Аниме Сериалы (HD)

    Текущее время: 19-Авг 12:00

    Часовой пояс: UTC + 5



    Вы не можете начинать темы
    Вы не можете отвечать на сообщения
    Вы не можете редактировать свои сообщения
    Вы не можете удалять свои сообщения
    Вы не можете голосовать в опросах
    Вы не можете прикреплять файлы к сообщениям
    Вы не можете скачивать файлы