Death Race: Beyond Anarchy / Смертельная гонка 4: Вне анархии (2018) BDRip 1080p | 60 fps :: UZTOR.PW Лучший трекер в зоне TAS-IX!
Регистрация ·
Имя: Пароль:  
· Забыли пароль?

Навигация по Торрент раздачам и Форум

 Death Race: Beyond Anarchy / Смертельная гонка 4: Вне анархии (2018) BDRip 1080p | 60 fps

Главная  Кинофильмы  Кинофильмы (48-120 FPS)
Статистика раздачи
Качаю: [ 1 ]
 
     
 
 
Автор Сообщение
  • Root ®
  • Не в сети
  • 5065
  • Пол: Мужской

  • Стаж: 9 месяцев 30 дней

  • Сообщений: 77

  • Провайдер: UzOnline UzOnline

  • Telegram: happyman_one

  • Карма: 112


  • Наличие запрета:

  • Награды: 2 (Подробнее)
    Admin (Количество: 1) Speedy (Количество: 1)
  • Создавать темы 20-Май-2019 09:12

    Название: Смертельная гонка 4: Вне анархии
    Оригинальное название: Death Race: Beyond Anarchy
    Год выхода: 2018
    Жанр: боевик
    Режиссер: Дон Майкл Пол
    Страна: США, Болгария
    Продолжительность: 01:50:58-В ролях: Люси Саутхолл,Николас Аарон,Jasette Amos,Виктория Ананьева,Нели Ангелова,Боян Анев,Ванина Ариас,Линда Келли,Еннис Чун-Ян,Кэсси Клер-Описание:
    Герой знакомится с агентом телеканала в местном баре, и тот предлагает ему участие в гонке по пустыне. Гонщиками становятся все отъявленные негодяи, насильники и убийцы. Когда герой отказывается, его семью берут в заложники, а самого насильно заставляют сесть за руль.-Качество: BDRip 1080p | 60 fps
    Формат: MKV
    Видео: 1920 x 1080 (1.778) | 59.940 fps | 18.0 Мбит/сек
    Аудио 1: DTS| 5.1 | 48 kHz | 768 kbps | 24 bit | Дубляж (Blu-ray EUR) | pic
    Аудио 2: AC-3 | 5.1 | 48 kHz | 448 kbps | 16 bit | Дубляж (Blu-ray EUR) | pic
    Аудио 3: DTS | 5.1 | 48 kHz | 1509 kbps | 16 bit | Оригинал | pic
    Субтитры: RU/EN

    Информация по видеофайлу

    General
    Unique ID                      : 217617152483430978316067579447918552142 (0xA3B789FE652A1079751527A39FFD644E)
    Complete name                  : E:\60 FPS kino\Смертельная гонка 4 - Вне анархии.mkv
    Format                         : Matroska
    Format version                 : Version 4
    File size                      : 16.0 GiB
    Duration                       : 1 h 50 min
    Overall bit rate               : 20.7 Mb/s
    Movie name                     : Смертельная гонка 4: Вне анархии / Death Race 4 - Beyond Anarchy (2018)
    Encoded date                   : UTC 2018-12-21 15:25:23
    Writing application            : mkvmerge v22.0.0 ('At The End Of The World') 64-bit
    Writing library                : libebml v1.3.5 + libmatroska v1.4.8
    Video
    ID                             : 1
    Format                         : AVC
    Format/Info                    : Advanced Video Codec
    Format profile                 : High@L4.1
    Format settings                : CABAC / 4 Ref Frames
    Format settings, CABAC         : Yes
    Format settings, ReFrames      : 4 frames
    Codec ID                       : V_MPEG4/ISO/AVC
    Duration                       : 1 h 50 min
    Bit rate                       : 18.0 Mb/s
    Width                          : 1 920 pixels
    Height                         : 1 080 pixels
    Display aspect ratio           : 16:9
    Frame rate mode                : Constant
    Frame rate                     : 59.940 (60000/1001) FPS
    Color space                    : YUV
    Chroma subsampling             : 4:2:0
    Bit depth                      : 8 bits
    Scan type                      : Progressive
    Bits/(Pixel*Frame)             : 0.145
    Stream size                    : 13.9 GiB (87%)
    Title                          : Таляьба: 60-fps.org
    Writing library                : x264 core 146 r2538 121396c
    Encoding settings              : cabac=1 / ref=4 / deblock=1:-2:-2 / analyse=0x3:0x113 / me=umh / subme=9 / psy=1 / psy_rd=1.00:0.25 / mixed_ref=1 / me_range=32 / chroma_me=1 / trellis=2 / 8x8dct=1 / cqm=0 / deadzone=6,6 / fast_pskip=1 / chroma_qp_offset=-4 / threads=12 / lookahead_threads=2 / sliced_threads=0 / nr=0 / decimate=0 / interlaced=0 / bluray_compat=0 / constrained_intra=0 / bframes=3 / b_pyramid=2 / b_adapt=2 / b_bias=0 / direct=3 / weightb=1 / open_gop=0 / weightp=2 / keyint=600 / keyint_min=60 / scenecut=40 / intra_refresh=0 / rc_lookahead=60 / rc=2pass / mbtree=1 / bitrate=18000 / ratetol=1.0 / qcomp=0.80 / qpmin=0 / qpmax=69 / qpstep=4 / cplxblur=20.0 / qblur=0.5 / vbv_maxrate=50000 / vbv_bufsize=50000 / nal_hrd=none / filler=0 / ip_ratio=1.10 / aq=1:0.50
    Language                       : English
    Default                        : Yes
    Forced                         : No
    Audio #1
    ID                             : 2
    Format                         : DTS
    Format/Info                    : Digital Theater Systems
    Codec ID                       : A_DTS
    Duration                       : 1 h 50 min
    Bit rate mode                  : Constant
    Bit rate                       : 768 kb/s
    Channel(s)                     : 6 channels
    Channel layout                 : C L R Ls Rs LFE
    Sampling rate                  : 48.0 kHz
    Frame rate                     : 93.750 FPS (512 SPF)
    Bit depth                      : 24 bits
    Compression mode               : Lossy
    Stream size                    : 610 MiB (4%)
    Title                          : Blu-ray EUR
    Language                       : Russian
    Default                        : Yes
    Forced                         : Yes
    Audio #2
    ID                             : 3
    Format                         : AC-3
    Format/Info                    : Audio Coding 3
    Commercial name                : Dolby Digital
    Codec ID                       : A_AC3
    Duration                       : 1 h 50 min
    Bit rate mode                  : Constant
    Bit rate                       : 448 kb/s
    Channel(s)                     : 6 channels
    Channel layout                 : L R C LFE Ls Rs
    Sampling rate                  : 48.0 kHz
    Frame rate                     : 31.250 FPS (1536 SPF)
    Bit depth                      : 16 bits
    Compression mode               : Lossy
    Stream size                    : 356 MiB (2%)
    Title                          : Blu-ray EUR
    Language                       : Russian
    Service kind                   : Complete Main
    Default                        : No
    Forced                         : No
    Audio #3
    ID                             : 4
    Format                         : DTS
    Format/Info                    : Digital Theater Systems
    Codec ID                       : A_DTS
    Duration                       : 1 h 50 min
    Bit rate mode                  : Constant
    Bit rate                       : 1 509 kb/s
    Channel(s)                     : 6 channels
    Channel layout                 : C L R Ls Rs LFE
    Sampling rate                  : 48.0 kHz
    Frame rate                     : 93.750 FPS (512 SPF)
    Bit depth                      : 24 bits
    Compression mode               : Lossy
    Stream size                    : 1.17 GiB (7%)
    Title                          : Original
    Language                       : English
    Default                        : No
    Forced                         : No
    Text #1
    ID                             : 5
    Format                         : UTF-8
    Codec ID                       : S_TEXT/UTF8
    Codec ID/Info                  : UTF-8 Plain Text
    Duration                       : 1 h 45 min
    Bit rate                       : 0 b/s
    Count of elements              : 31
    Stream size                    : 649 Bytes (0%)
    Title                          : Forced
    Language                       : Russian
    Default                        : Yes
    Forced                         : Yes
    Text #2
    ID                             : 6
    Format                         : UTF-8
    Codec ID                       : S_TEXT/UTF8
    Codec ID/Info                  : UTF-8 Plain Text
    Duration                       : 1 h 50 min
    Bit rate                       : 51 b/s
    Count of elements              : 863
    Stream size                    : 41.6 KiB (0%)
    Title                          : Full
    Language                       : Russian
    Default                        : No
    Forced                         : No
    Text #3
    ID                             : 7
    Format                         : UTF-8
    Codec ID                       : S_TEXT/UTF8
    Codec ID/Info                  : UTF-8 Plain Text
    Duration                       : 1 h 48 min
    Bit rate                       : 43 b/s
    Count of elements              : 1079
    Stream size                    : 34.7 KiB (0%)
    Title                          : Full
    Language                       : English
    Default                        : No
    Forced                         : No
    Text #4
    ID                             : 8
    Format                         : UTF-8
    Codec ID                       : S_TEXT/UTF8
    Codec ID/Info                  : UTF-8 Plain Text
    Duration                       : 1 h 46 min
    Bit rate                       : 41 b/s
    Count of elements              : 1042
    Stream size                    : 32.5 KiB (0%)
    Title                          : SDH
    Language                       : English
    Default                        : No
    Forced                         : No
    Menu
    00:00:00.000                   : en:Chapter 01
    00:08:12.241                   : en:Chapter 02
    00:15:38.437                   : en:Chapter 03
    00:20:44.910                   : en:Chapter 04
    00:25:46.336                   : en:Chapter 05
    00:29:20.967                   : en:Chapter 06
    00:35:49.564                   : en:Chapter 07
    00:41:29.111                   : en:Chapter 08
    00:47:44.403                   : en:Chapter 09
    00:52:28.436                   : en:Chapter 10
    00:56:38.186                   : en:Chapter 11
    01:00:13.443                   : en:Chapter 12
    01:07:00.641                   : en:Chapter 13
    01:12:50.199                   : en:Chapter 14
    01:17:51.833                   : en:Chapter 15
    01:21:55.952                   : en:Chapter 16
    01:28:38.604                   : en:Chapter 17
    01:32:56.487                   : en:Chapter 18
    01:38:02.418                   : en:Chapter 19
    01:45:55.766                   : en:Chapter 20

    Скриншоты


    _________________
    Показать сообщения:    
    Главная  Кинофильмы  Кинофильмы (48-120 FPS)

    Текущее время: 18-Окт 08:14

    Часовой пояс: UTC + 5



    Вы не можете начинать темы
    Вы не можете отвечать на сообщения
    Вы не можете редактировать свои сообщения
    Вы не можете удалять свои сообщения
    Вы не можете голосовать в опросах
    Вы не можете прикреплять файлы к сообщениям
    Вы не можете скачивать файлы