Жизнь в СССР от А до Я / Серии: 8 из 8 [2018, Документальный, познавательный, история, WEB-DL 1080p] :: UZTOR.PW Лучший трекер в зоне TAS-IX!
Регистрация ·
Имя: Пароль:  
· Забыли пароль?
Уважаемые гости сайта! Добро Пожаловать на наш торрент трекер,где Вы можете бесплатно скачать любой Софт,Фильмы,Музыку и многое другое! А так же постоянно ведется набор модераторов и релизеров. Зарегистрируйтесь сейчас, чтобы получить доступ ко всем функциям. После регистрации или входа на сайт вы сможете создавать темы, отвечать на сообщения и скачивать файлы.

Навигация по Торрент раздачам и Форум и Стол заказов и Группы

 Жизнь в СССР от А до Я / Серии: 8 из 8 [2018, Документальный, познавательный, история, WEB-DL 1080p]

Главная  Документальные фильмы и телепередачи  История
Статистика раздачи
Качаю: [ 1 ]
 
     
 
 
Автор Сообщение
  • -InVoKeR- ®
  • Не в сети
  • Автор темы

  • 5057
  • VIP пользователь

  • Пол: Мужской

  • Стаж: 1 год 3 месяца

  • Сообщений: 476

  •  Узбекистан

  • Откуда: из Криптона

  • Провайдер: UzOnline UzOnline

  • Тарифный план: Unlim 4 (Мир: 4 Мбит/с, Tas-ix: 100Мбит/с)

  • Steam: 76561198442747843

  • Telegram: i_Invoker

  • Карма: 1118


  • Наличие запрета:

  • Награды: 22 (Подробнее)
    Admin (Количество: 1) Авторитет (Количество: 1) Активный релизер 1 (Количество: 1) Активный релизер 2 (Количество: 1) Активный сидер 1 (Количество: 1)
  • Создавать темы 19-Дек-2018 14:03

    Жизнь в СССР от А до Я-- Год выпуска: 2018
    Страна: Россия
    Жанр: Документальный, познавательный, история
    Продолжительность: 8 x ~ 00:38:00
    Язык: русский
    --Описание: Телевизор «Горизонт», юбилейный рубль с Гагариным, советский оловянный солдатик, радиола, белый фартук для школьной формы, ручка в форме ракеты. Эти вещи сегодня увидишь лишь на блошиных рынках и в старых бабушкиных квартирах. Но встреча с каждой - как солнечный удар, как нырок в прошлое, в то самое счастливое беззаботное время, когда мы были маленькими или молодыми. Эти вещи уникальны, ибо они хранят аромат времени и напоминают нам, что мы родом из великой страны под названием СССР. Страны, жизнь которой была полна поистине великих событий и великих свершений, о которых авторы хотят напомнить зрителю.--Качество: WEB-DL 1080p
    Формат: MKV
    Видео: MPEG-4, 1920x1080 (16:9), 25.000 fps, 3000 kbps, 0.058 bit/pixel
    Аудио: Русский AAC, 48000 Гц, 2ch, 192 kbps
    ----

    Список серий

    1. Коммунальная страна
    Советские квартиры: «сталинки», «хрущевки», «брежневки». Сегодня в это верится с трудом, но во времена СССР жилье людям давали бесплатно. Сколько лет советский человек стоял в очереди, чтобы получить квартиру? Как получилось, что жилищная политика в СССР была весьма эффективным средством управления? Чтобы жить более комфортно, надо было выбиваться в люди. Почему мы до сих пор с любовью вспоминаем коммуналки, где уживались вместе и алкоголики, и академики. И почему советские люди жили одной большой семьей и не имели привычки отгораживаться от соседей?
    2. Квартирный вопрос
    Во времена Советского Союза весь жилой фонд страны находился в собственности государства. Не существовало даже такого понятия - «рынок жилья». Право на бесплатное жилье имел каждый. Но некоторые не хотели или не могли ждать очереди, которая растягивалась на несколько лет. Каким же образом покупали, разменивали, строили и обставляли свои квартиры в эпоху отсутствия частной собственности? И что означали для советских людей заветные слова: стенка, ковер, хрусталь?
    3. Мода для народа
    Ботинки «Прощай, молодость», панталоны с начесом, резиновые сапоги. Сегодня, в эпоху потребительского изобилия, мы вспоминаем с ностальгией эти «шедевры» советской легкой промышленности. Кто решал, что советские люди должны выглядеть невзрачно и одинаково? И как мы выходили из положения: шили платья из занавесок и гонялись за импортным дефицитом. На советской эстраде главной законодательницей моды стала Эдита Пьеха. Прославил страну на Западе «Красный Диор» Вячеслав Зайцев. Но почему при этом в СССР само слово «мода» было под запретом?
    4. Берегись автомобиля
    Недоступная «Победа», неубиваемый «Москвич», всенародная «копейка». Сколько лет советский человек копил деньги, чтобы купить хотя бы горбатый «Запорожец», и сколько еще нужно было ждать «письма счастья»? За что ценили наши машины за рубежом, и что изменилось после строительства АвтоВАЗа? Почему профессия автомеханика была одной из самой уважаемых, а гараж превратился в настоящий мужской клуб? Что такое автотюнинг по-советски, и на каких машинах ездили знаменитые и влиятельные?
    5. За витриной универмага
    Старые советские бренды сегодня снова в почете: конфеты «Мишка на Севере», сгущенка с синей наклейкой, чай со слоном, докторская колбаса! И все это в изобилии и без очередей. О таком советские люди ни 30, ни 40 лет назад даже не мечтали. А в повседневном обиходе были такие слова, как блат, дефицит, заказ, комиссионка и, конечно же, очередь. Почему в середине 50-х полки магазинов СССР ломились от деликатесов? В 70-е и 80-е годы многие товары стали дефицитными, а в 90-е их и вовсе можно было купить только по карточкам? Откуда взялись спекулянты? И почему советская промышленность не могла обеспечить товарами всю страну?
    6. Охота за дефицитом
    Сегодня сложно представить, что в магазинах могут быть пустые полки. А такие простые продукты питания, как, например, колбаса могут продаваться по талонам. Да еще за ними надо отстоять очередь. И все это было в нашей стране совсем недавно - лет 40 назад. Но тогда среди граждан СССР были те, кто ни в каких очередях не стоял. Те, кто имел нужные связи, как тогда говорили – «блат». И те, кто обеспечивал эти связи - фарцовщики, спекулянты, цеховики. Они не хотели жить по законам советской торговли. Но каждый из них ходил по краю пропасти. На чем погорел директор Елисеевского гастронома, у которого отоваривалась сама Алла Пугачева? Кто из звезд занимался нелегальной торговлей? И как в СССР боролись с коррупцией?
    7. Брак по расчету и без
    Каждый второй брак в России обречен на развод. Такова печальная статистика семейных отношений. Молодые люди меняют традиционный формат семьи, предпочитая гражданский брак, который можно безболезненно разорвать в любой момент. По данным социологических исследований, с 90-х годов прошлого столетия количество разводов в нашей стране выросло в полтора, а по сравнению с 60-ми - в три раза. Что же такого особенного было в советской жизни, что делало семейные союзы крепкими и долговечными? Как праздновали студенческие свадьбы? На что могла претендовать молодая семья? И чем грозил развод в СССР? Рассказ о том, какую роль играла семья в государственной политике Советского Союза, как создавались советские семьи, почему развод был проблемой и чем семья советская отличалась от семьи современной.
    8. Общепит. Дайте жалобную книгу!
    У каждого народа есть своя кухня - с национальными традициями, местными продуктами и особыми секретами. Ровно век назад у нашей русской кухни появился дублер: подкупающая своей простотой, совершенно особая - кухня Советская. И готовилась эта кухня исключительно в заведениях общественного питания. Чем отличался советский общепит от нынешнего фаст-фуда? Какое меню было в советских ресторанах? И сколько всё это стоило? Об этом вспоминают свидетели того периода. Рассказ о том, как зарождалась и развивалась советская система общественного питания, какие у нее были недостатки и очевидные преимущества перед нынешними кафе и ресторанами, и почему советская кухня до сих пор у тех, кто ее застал, вызывает чувство ностальгии.

    Тех. инфо

    Общее
    Уникальный идентификатор : 73453202902823081587523496133770864802 (0x37429282220306F483C99424909FE8A2)
    Полное имя : D:\Жизнь.в.СССР.от.А.до.Я.2018.WEB-DL.1080p-ylnian\1.Коммунальная.страна-ylnian.mkv
    Формат : Matroska
    Версия формата : Version 4
    Размер файла : 855 Мбайт
    Продолжительность : 37 м. 46 с.
    Общий поток : 3163 Кбит/сек
    Дата кодирования : UTC 2018-12-11 10:08:17
    Программа кодирования : mkvmerge v29.0.0 ('Like It Or Not') 64-bit
    Библиотека кодирования : libebml v1.3.6 + libmatroska v1.4.9
    Видео
    Идентификатор : 1
    Формат : AVC
    Формат/Информация : Advanced Video Codec
    Профиль формата : High@L4
    Настройки формата : 3 Ref Frames
    Параметр CABAC формата : Нет
    Параметр RefFrames формата : 3 кадра
    Идентификатор кодека : V_MPEG4/ISO/AVC
    Продолжительность : 37 м. 46 с.
    Вид битрейта : Постоянный
    Битрейт : 3000 Кбит/сек
    Ширина : 1920 пикселей
    Высота : 1080 пикселей
    Соотношение сторон : 16:9
    Режим частоты кадров : Постоянный
    Частота кадров : 25,000 кадров/сек
    Стандарт вещания : PAL
    Цветовое пространство : YUV
    Субдискретизация насыщенности : 4:2:0
    Битовая глубина : 8 бит
    Тип развёртки : Прогрессивная
    Бит/(Пиксели*Кадры) : 0.058
    Размер потока : 803 Мбайт (94%)
    Язык : Russian
    Default : Да
    Forced : Да
    Цветовой диапазон : Limited
    Основные цвета : BT.709
    Характеристики трансфера : BT.709
    Коэффициенты матрицы : BT.709
    Аудио
    Идентификатор : 2
    Формат : AAC LC
    Формат/Информация : Advanced Audio Codec Low Complexity
    Идентификатор кодека : A_AAC-2
    Продолжительность : 37 м. 46 с.
    Битрейт : 192 Кбит/сек
    Каналы : 2 канала
    Channel layout : L R
    Частота : 48,0 КГц
    Частота кадров : 46,875 кадров/сек (1024 SPF)
    Метод сжатия : С потерями
    Задержка видео : -40 мс.
    Размер потока : 51,2 Мбайт (6%)
    Язык : Russian
    Default : Да
    Forced : Да
    Общее
    Уникальный идентификатор : 284257246257590801139342847675039479057 (0xD5D9F4499306CAE0F718787FC6B7F511)
    Полное имя : D:\Жизнь.в.СССР.от.А.до.Я.2018.WEB-DL.1080p-ylnian\2.Квартирный.вопрос-ylnian.mkv
    Формат : Matroska
    Версия формата : Version 4
    Размер файла : 865 Мбайт
    Продолжительность : 38 м. 5 с.
    Общий поток : 3174 Кбит/сек
    Дата кодирования : UTC 2018-12-11 10:11:12
    Программа кодирования : mkvmerge v29.0.0 ('Like It Or Not') 64-bit
    Библиотека кодирования : libebml v1.3.6 + libmatroska v1.4.9
    Видео
    Идентификатор : 1
    Формат : AVC
    Формат/Информация : Advanced Video Codec
    Профиль формата : High@L4
    Настройки формата : 3 Ref Frames
    Параметр CABAC формата : Нет
    Параметр RefFrames формата : 3 кадра
    Идентификатор кодека : V_MPEG4/ISO/AVC
    Продолжительность : 38 м. 5 с.
    Вид битрейта : Постоянный
    Битрейт : 3000 Кбит/сек
    Ширина : 1920 пикселей
    Высота : 1080 пикселей
    Соотношение сторон : 16:9
    Режим частоты кадров : Постоянный
    Частота кадров : 25,000 кадров/сек
    Стандарт вещания : PAL
    Цветовое пространство : YUV
    Субдискретизация насыщенности : 4:2:0
    Битовая глубина : 8 бит
    Тип развёртки : Прогрессивная
    Бит/(Пиксели*Кадры) : 0.058
    Размер потока : 813 Мбайт (94%)
    Язык : Russian
    Default : Да
    Forced : Да
    Цветовой диапазон : Limited
    Основные цвета : BT.709
    Характеристики трансфера : BT.709
    Коэффициенты матрицы : BT.709
    Аудио
    Идентификатор : 2
    Формат : AAC LC
    Формат/Информация : Advanced Audio Codec Low Complexity
    Идентификатор кодека : A_AAC-2
    Продолжительность : 38 м. 5 с.
    Битрейт : 192 Кбит/сек
    Каналы : 2 канала
    Channel layout : L R
    Частота : 48,0 КГц
    Частота кадров : 46,875 кадров/сек (1024 SPF)
    Метод сжатия : С потерями
    Задержка видео : -40 мс.
    Размер потока : 51,6 Мбайт (6%)
    Язык : Russian
    Default : Да
    Forced : Да
    Общее
    Уникальный идентификатор : 276176705193789789022260185557820537580 (0xCFC5B2DA8FE3FA3786883030C84C7AEC)
    Полное имя : D:\Жизнь.в.СССР.от.А.до.Я.2018.WEB-DL.1080p-ylnian\3.Мода.для.народа-ylnian.mkv
    Формат : Matroska
    Версия формата : Version 4
    Размер файла : 865 Мбайт
    Продолжительность : 38 м. 15 с.
    Общий поток : 3161 Кбит/сек
    Дата кодирования : UTC 2018-12-11 10:12:20
    Программа кодирования : mkvmerge v29.0.0 ('Like It Or Not') 64-bit
    Библиотека кодирования : libebml v1.3.6 + libmatroska v1.4.9
    Видео
    Идентификатор : 1
    Формат : AVC
    Формат/Информация : Advanced Video Codec
    Профиль формата : High@L4
    Настройки формата : 3 Ref Frames
    Параметр CABAC формата : Нет
    Параметр RefFrames формата : 3 кадра
    Идентификатор кодека : V_MPEG4/ISO/AVC
    Продолжительность : 38 м. 15 с.
    Вид битрейта : Постоянный
    Битрейт : 3000 Кбит/сек
    Ширина : 1920 пикселей
    Высота : 1080 пикселей
    Соотношение сторон : 16:9
    Режим частоты кадров : Постоянный
    Частота кадров : 25,000 кадров/сек
    Стандарт вещания : PAL
    Цветовое пространство : YUV
    Субдискретизация насыщенности : 4:2:0
    Битовая глубина : 8 бит
    Тип развёртки : Прогрессивная
    Бит/(Пиксели*Кадры) : 0.058
    Размер потока : 812 Мбайт (94%)
    Язык : Russian
    Default : Да
    Forced : Да
    Цветовой диапазон : Limited
    Основные цвета : BT.709
    Характеристики трансфера : BT.709
    Коэффициенты матрицы : BT.709
    Аудио
    Идентификатор : 2
    Формат : AAC LC
    Формат/Информация : Advanced Audio Codec Low Complexity
    Идентификатор кодека : A_AAC-2
    Продолжительность : 38 м. 15 с.
    Битрейт : 192 Кбит/сек
    Каналы : 2 канала
    Channel layout : L R
    Частота : 48,0 КГц
    Частота кадров : 46,875 кадров/сек (1024 SPF)
    Метод сжатия : С потерями
    Задержка видео : -40 мс.
    Размер потока : 51,8 Мбайт (6%)
    Язык : Russian
    Default : Да
    Forced : Да
    Общее
    Уникальный идентификатор : 308317721625039715581377247003041336482 (0xE7F3D54FA102381B94C8B5CC66B00CA2)
    Полное имя : D:\Жизнь.в.СССР.от.А.до.Я.2018.WEB-DL.1080p-ylnian\4.Берегись.автомобиля-ylnian.mkv
    Формат : Matroska
    Версия формата : Version 4
    Размер файла : 882 Мбайт
    Продолжительность : 38 м. 42 с.
    Общий поток : 3186 Кбит/сек
    Дата кодирования : UTC 2018-12-11 10:13:08
    Программа кодирования : mkvmerge v29.0.0 ('Like It Or Not') 64-bit
    Библиотека кодирования : libebml v1.3.6 + libmatroska v1.4.9
    Видео
    Идентификатор : 1
    Формат : AVC
    Формат/Информация : Advanced Video Codec
    Профиль формата : High@L4
    Настройки формата : 3 Ref Frames
    Параметр CABAC формата : Нет
    Параметр RefFrames формата : 3 кадра
    Идентификатор кодека : V_MPEG4/ISO/AVC
    Продолжительность : 38 м. 42 с.
    Вид битрейта : Постоянный
    Битрейт : 3000 Кбит/сек
    Ширина : 1920 пикселей
    Высота : 1080 пикселей
    Соотношение сторон : 16:9
    Режим частоты кадров : Постоянный
    Частота кадров : 25,000 кадров/сек
    Стандарт вещания : PAL
    Цветовое пространство : YUV
    Субдискретизация насыщенности : 4:2:0
    Битовая глубина : 8 бит
    Тип развёртки : Прогрессивная
    Бит/(Пиксели*Кадры) : 0.058
    Размер потока : 829 Мбайт (94%)
    Язык : Russian
    Default : Да
    Forced : Да
    Цветовой диапазон : Limited
    Основные цвета : BT.709
    Характеристики трансфера : BT.709
    Коэффициенты матрицы : BT.709
    Аудио
    Идентификатор : 2
    Формат : AAC LC
    Формат/Информация : Advanced Audio Codec Low Complexity
    Идентификатор кодека : A_AAC-2
    Продолжительность : 38 м. 42 с.
    Битрейт : 192 Кбит/сек
    Каналы : 2 канала
    Channel layout : L R
    Частота : 48,0 КГц
    Частота кадров : 46,875 кадров/сек (1024 SPF)
    Метод сжатия : С потерями
    Задержка видео : -40 мс.
    Размер потока : 52,5 Мбайт (6%)
    Язык : Russian
    Default : Да
    Forced : Да
    Общее
    Уникальный идентификатор : 43876285416014883391259547101979129479 (0x210243E3B23AAA7BB8173A43698EB687)
    Полное имя : D:\Жизнь.в.СССР.от.А.до.Я.2018.WEB-DL.1080p-ylnian\5.За.витриной.универмага-ylnian.mkv
    Формат : Matroska
    Версия формата : Version 4
    Размер файла : 844 Мбайт
    Продолжительность : 37 м. 6 с.
    Общий поток : 3179 Кбит/сек
    Дата кодирования : UTC 2018-12-11 10:14:06
    Программа кодирования : mkvmerge v29.0.0 ('Like It Or Not') 64-bit
    Библиотека кодирования : libebml v1.3.6 + libmatroska v1.4.9
    Видео
    Идентификатор : 1
    Формат : AVC
    Формат/Информация : Advanced Video Codec
    Профиль формата : High@L4
    Настройки формата : 3 Ref Frames
    Параметр CABAC формата : Нет
    Параметр RefFrames формата : 3 кадра
    Идентификатор кодека : V_MPEG4/ISO/AVC
    Продолжительность : 37 м. 6 с.
    Вид битрейта : Постоянный
    Битрейт : 3000 Кбит/сек
    Ширина : 1920 пикселей
    Высота : 1080 пикселей
    Соотношение сторон : 16:9
    Режим частоты кадров : Постоянный
    Частота кадров : 25,000 кадров/сек
    Стандарт вещания : PAL
    Цветовое пространство : YUV
    Субдискретизация насыщенности : 4:2:0
    Битовая глубина : 8 бит
    Тип развёртки : Прогрессивная
    Бит/(Пиксели*Кадры) : 0.058
    Размер потока : 793 Мбайт (94%)
    Язык : Russian
    Default : Да
    Forced : Да
    Цветовой диапазон : Limited
    Основные цвета : BT.709
    Характеристики трансфера : BT.709
    Коэффициенты матрицы : BT.709
    Аудио
    Идентификатор : 2
    Формат : AAC LC
    Формат/Информация : Advanced Audio Codec Low Complexity
    Идентификатор кодека : A_AAC-2
    Продолжительность : 37 м. 6 с.
    Битрейт : 192 Кбит/сек
    Каналы : 2 канала
    Channel layout : L R
    Частота : 48,0 КГц
    Частота кадров : 46,875 кадров/сек (1024 SPF)
    Метод сжатия : С потерями
    Задержка видео : -40 мс.
    Размер потока : 50,3 Мбайт (6%)
    Язык : Russian
    Default : Да
    Forced : Да
    Общее
    Уникальный идентификатор : 201265149574894549731711072304002852031 (0x976A4201545A02DCFE4E617D4F6164BF)
    Полное имя : D:\Жизнь.в.СССР.от.А.до.Я.2018.WEB-DL.1080p-ylnian\6.Охота.за.дефицитом-ylnian.mkv
    Формат : Matroska
    Версия формата : Version 4
    Размер файла : 879 Мбайт
    Продолжительность : 38 м. 43 с.
    Общий поток : 3176 Кбит/сек
    Дата кодирования : UTC 2018-12-11 10:15:00
    Программа кодирования : mkvmerge v29.0.0 ('Like It Or Not') 64-bit
    Библиотека кодирования : libebml v1.3.6 + libmatroska v1.4.9
    Видео
    Идентификатор : 1
    Формат : AVC
    Формат/Информация : Advanced Video Codec
    Профиль формата : High@L4
    Настройки формата : 3 Ref Frames
    Параметр CABAC формата : Нет
    Параметр RefFrames формата : 3 кадра
    Идентификатор кодека : V_MPEG4/ISO/AVC
    Продолжительность : 38 м. 43 с.
    Вид битрейта : Постоянный
    Битрейт : 3000 Кбит/сек
    Ширина : 1920 пикселей
    Высота : 1080 пикселей
    Соотношение сторон : 16:9
    Режим частоты кадров : Постоянный
    Частота кадров : 25,000 кадров/сек
    Стандарт вещания : PAL
    Цветовое пространство : YUV
    Субдискретизация насыщенности : 4:2:0
    Битовая глубина : 8 бит
    Тип развёртки : Прогрессивная
    Бит/(Пиксели*Кадры) : 0.058
    Размер потока : 826 Мбайт (94%)
    Язык : Russian
    Default : Да
    Forced : Да
    Цветовой диапазон : Limited
    Основные цвета : BT.709
    Характеристики трансфера : BT.709
    Коэффициенты матрицы : BT.709
    Аудио
    Идентификатор : 2
    Формат : AAC LC
    Формат/Информация : Advanced Audio Codec Low Complexity
    Идентификатор кодека : A_AAC-2
    Продолжительность : 38 м. 43 с.
    Битрейт : 192 Кбит/сек
    Каналы : 2 канала
    Channel layout : L R
    Частота : 48,0 КГц
    Частота кадров : 46,875 кадров/сек (1024 SPF)
    Метод сжатия : С потерями
    Задержка видео : -40 мс.
    Размер потока : 52,5 Мбайт (6%)
    Язык : Russian
    Default : Да
    Forced : Да
    Общее
    Уникальный идентификатор : 43054201045772395541080428104245855129 (0x2063F0002B273700AEC336ED12BC4399)
    Полное имя : D:\Жизнь.в.СССР.от.А.до.Я.2018.WEB-DL.1080p-ylnian\7.Брак.по.расчету.и.без-ylnian.mkv
    Формат : Matroska
    Версия формата : Version 4
    Размер файла : 859 Мбайт
    Продолжительность : 37 м. 47 с.
    Общий поток : 3178 Кбит/сек
    Дата кодирования : UTC 2018-12-11 10:15:53
    Программа кодирования : mkvmerge v29.0.0 ('Like It Or Not') 64-bit
    Библиотека кодирования : libebml v1.3.6 + libmatroska v1.4.9
    Видео
    Идентификатор : 1
    Формат : AVC
    Формат/Информация : Advanced Video Codec
    Профиль формата : High@L4
    Настройки формата : 3 Ref Frames
    Параметр CABAC формата : Нет
    Параметр RefFrames формата : 3 кадра
    Идентификатор кодека : V_MPEG4/ISO/AVC
    Продолжительность : 37 м. 47 с.
    Вид битрейта : Постоянный
    Битрейт : 3000 Кбит/сек
    Ширина : 1920 пикселей
    Высота : 1080 пикселей
    Соотношение сторон : 16:9
    Режим частоты кадров : Постоянный
    Частота кадров : 25,000 кадров/сек
    Стандарт вещания : PAL
    Цветовое пространство : YUV
    Субдискретизация насыщенности : 4:2:0
    Битовая глубина : 8 бит
    Тип развёртки : Прогрессивная
    Бит/(Пиксели*Кадры) : 0.058
    Размер потока : 807 Мбайт (94%)
    Язык : Russian
    Default : Да
    Forced : Да
    Цветовой диапазон : Limited
    Основные цвета : BT.709
    Характеристики трансфера : BT.709
    Коэффициенты матрицы : BT.709
    Аудио
    Идентификатор : 2
    Формат : AAC LC
    Формат/Информация : Advanced Audio Codec Low Complexity
    Идентификатор кодека : A_AAC-2
    Продолжительность : 37 м. 47 с.
    Битрейт : 192 Кбит/сек
    Каналы : 2 канала
    Channel layout : L R
    Частота : 48,0 КГц
    Частота кадров : 46,875 кадров/сек (1024 SPF)
    Метод сжатия : С потерями
    Задержка видео : -40 мс.
    Размер потока : 51,2 Мбайт (6%)
    Язык : Russian
    Default : Да
    Forced : Да
    Общее
    Уникальный идентификатор : 282732759501479657901218263893423297937 (0xD4B459498919CC865F58BE854D5E1591)
    Полное имя : D:\Жизнь.в.СССР.от.А.до.Я.2018.WEB-DL.1080p-ylnian\8.Общепит.Дайте.жалобную.книгу-ylnian.mkv
    Формат : Matroska
    Версия формата : Version 4
    Размер файла : 869 Мбайт
    Продолжительность : 38 м. 8 с.
    Общий поток : 3184 Кбит/сек
    Дата кодирования : UTC 2018-12-11 10:16:49
    Программа кодирования : mkvmerge v29.0.0 ('Like It Or Not') 64-bit
    Библиотека кодирования : libebml v1.3.6 + libmatroska v1.4.9
    Видео
    Идентификатор : 1
    Формат : AVC
    Формат/Информация : Advanced Video Codec
    Профиль формата : High@L4
    Настройки формата : 3 Ref Frames
    Параметр CABAC формата : Нет
    Параметр RefFrames формата : 3 кадра
    Идентификатор кодека : V_MPEG4/ISO/AVC
    Продолжительность : 38 м. 8 с.
    Вид битрейта : Постоянный
    Битрейт : 3000 Кбит/сек
    Ширина : 1920 пикселей
    Высота : 1080 пикселей
    Соотношение сторон : 16:9
    Режим частоты кадров : Постоянный
    Частота кадров : 25,000 кадров/сек
    Стандарт вещания : PAL
    Цветовое пространство : YUV
    Субдискретизация насыщенности : 4:2:0
    Битовая глубина : 8 бит
    Тип развёртки : Прогрессивная
    Бит/(Пиксели*Кадры) : 0.058
    Размер потока : 816 Мбайт (94%)
    Язык : Russian
    Default : Да
    Forced : Да
    Цветовой диапазон : Limited
    Основные цвета : BT.709
    Характеристики трансфера : BT.709
    Коэффициенты матрицы : BT.709
    Аудио
    Идентификатор : 2
    Формат : AAC LC
    Формат/Информация : Advanced Audio Codec Low Complexity
    Идентификатор кодека : A_AAC-2
    Продолжительность : 38 м. 8 с.
    Битрейт : 192 Кбит/сек
    Каналы : 2 канала
    Channel layout : L R
    Частота : 48,0 КГц
    Частота кадров : 46,875 кадров/сек (1024 SPF)
    Метод сжатия : С потерями
    Задержка видео : -40 мс.
    Размер потока : 51,7 Мбайт (6%)
    Язык : Russian
    Default : Да
    Forced : Да
    [Свернуть]

    _________________
    Показать сообщения:    
    Главная  Документальные фильмы и телепередачи  История

    Текущее время: 25-Фев 17:14

    Часовой пояс: UTC + 5



    Вы не можете начинать темы
    Вы не можете отвечать на сообщения
    Вы не можете редактировать свои сообщения
    Вы не можете удалять свои сообщения
    Вы не можете голосовать в опросах
    Вы не можете прикреплять файлы к сообщениям
    Вы не можете скачивать файлы