Тройная угроза / Triple Threat (Джесси Джонсон) [боевик, триллер, криминал, 2019] BDRip 720p | 60 fps :: UZTOR.PW Трекер для всех
Регистрация ·
Имя: Пароль:  
· Забыли пароль?

Навигация по Торрент раздачам и Форум

 Тройная угроза / Triple Threat (Джесси Джонсон) [боевик, триллер, криминал, 2019] BDRip 720p | 60 fps

Главная  Кинофильмы  Кинофильмы (48-120 FPS)
Статистика раздачи
Нет
 
     
 
 
Автор Сообщение
  • Root ®
  • Не в сети
  • 5065
  • Пол: Мужской

  • Стаж: 6 месяцев 30 дней

  • Сообщений: 69

  • Провайдер: UzOnline UzOnline

  • Telegram: xq14224

  • Карма: 102


  • Создавать темы 17-Май-2019 17:39

    Название: Тройная угроза
    Оригинальное название: Triple Threat
    Год выхода: 2019
    Страна: США
    Продолжительность: 01:35:53-Жанр: боевик, триллер, криминал-Режиссер: Джесси Джонсон-В ролях: Тони Джа,Ико Уайс,Тайгер Чэнь,Скотт Эдкинс,Селина Джейд,Майкл Биспинг,Майкл Джей Уайт,Моника Мок,Яанин Висмитананда,Доминик Ванденберг-Описание:
    Где-то в джунглях Таиланда отряд наёмников проводит операцию по спасению своего главаря, объявленного террористом. В процессе они убивают всех встречных, и заминировав лагерь, оставляют умирать своих: тайца Паю и китайца Фэя. Этим двоим удаётся спастись и, чтобы заработать, они участвуют в боях без правил, где на них и выходит Джака — выживший после нападения на лагерь боец, мечтающий отомстить за смерть жены. Выпив с новым знакомым, с утра Паю и Фэй попадают в полицейский участок. В это время уже знакомый нам отряд наёмников пытается убить китайскую наследницу миллионов Сянь, которая хочет потратить своё состояние на развитие региона и этим положить конец преступности. Почти все телохранители девушки убиты, а сама она чудом добирается до того самого полицейского участка, где содержатся Паю и Фэй.
    Качество: BDRip 720p | 60 fps
    Формат: MKV
    Видео: 1280 x 536 (2.388) | 59.940 fps | 10.0 Мбит/сек
    Аудио 1: AC-3 | 5.1 | 48 kHz | 384 Кбит/сек | 16 bit | Дубляж(iTunes) |
    Аудио 2: DTS-HD MA | 5.1 | 48 kHz | 4000 Кбит/сек / 1509 Кбит/сек | 24 bit | Оригинал |
    Субтитры: EN

    Информация по видеофайлу

    General
    Unique ID                      : 90382963563449658373464817974549780536 (0x43FF2027406444F97F746749A7359838)
    Complete name                  : E:\60 FPS kino\Тройная угроза.mkv
    Format                         : Matroska
    Format version                 : Version 4
    File size                      : 9.59 GiB
    Duration                       : 1 h 35 min
    Overall bit rate mode          : Variable
    Overall bit rate               : 14.3 Mb/s
    Movie name                     : Тройная угроза / Triple Threat
    Encoded date                   : UTC 2019-04-06 07:33:11
    Writing application            : mkvmerge v22.0.0 ('At The End Of The World') 64-bit
    Writing library                : libebml v1.3.5 + libmatroska v1.4.8
    Video
    ID                             : 1
    Format                         : AVC
    Format/Info                    : Advanced Video Codec
    Format profile                 : High@L4.1
    Format settings                : CABAC / 8 Ref Frames
    Format settings, CABAC         : Yes
    Format settings, ReFrames      : 8 frames
    Codec ID                       : V_MPEG4/ISO/AVC
    Duration                       : 1 h 35 min
    Bit rate                       : 10 000 kb/s
    Width                          : 1 280 pixels
    Height                         : 536 pixels
    Display aspect ratio           : 2.40:1
    Frame rate mode                : Constant
    Frame rate                     : 59.940 (60000/1001) FPS
    Color space                    : YUV
    Chroma subsampling             : 4:2:0
    Bit depth                      : 8 bits
    Scan type                      : Progressive
    Bits/(Pixel*Frame)             : 0.243
    Stream size                    : 6.65 GiB (69%)
    Title                          : Талямба: 60-fps.org
    Writing library                : x264 core 146 r2538 121396c
    Encoding settings              : cabac=1 / ref=8 / deblock=1:-2:-2 / analyse=0x3:0x113 / me=umh / subme=9 / psy=1 / psy_rd=1.00:0.25 / mixed_ref=1 / me_range=32 / chroma_me=1 / trellis=2 / 8x8dct=1 / cqm=0 / deadzone=6,6 / fast_pskip=1 / chroma_qp_offset=-4 / threads=12 / lookahead_threads=2 / sliced_threads=0 / nr=0 / decimate=0 / interlaced=0 / bluray_compat=0 / constrained_intra=0 / bframes=3 / b_pyramid=2 / b_adapt=2 / b_bias=0 / direct=3 / weightb=1 / open_gop=0 / weightp=2 / keyint=600 / keyint_min=60 / scenecut=40 / intra_refresh=0 / rc_lookahead=60 / rc=2pass / mbtree=1 / bitrate=10000 / ratetol=1.0 / qcomp=0.80 / qpmin=0 / qpmax=69 / qpstep=4 / cplxblur=20.0 / qblur=0.5 / vbv_maxrate=50000 / vbv_bufsize=50000 / nal_hrd=none / filler=0 / ip_ratio=1.10 / aq=1:0.50
    Language                       : English
    Default                        : Yes
    Forced                         : No
    Audio #1
    ID                             : 2
    Format                         : AC-3
    Format/Info                    : Audio Coding 3
    Commercial name                : Dolby Digital
    Codec ID                       : A_AC3
    Duration                       : 1 h 35 min
    Bit rate mode                  : Constant
    Bit rate                       : 384 kb/s
    Channel(s)                     : 6 channels
    Channel layout                 : L R C LFE Ls Rs
    Sampling rate                  : 48.0 kHz
    Frame rate                     : 31.250 FPS (1536 SPF)
    Bit depth                      : 16 bits
    Compression mode               : Lossy
    Stream size                    : 263 MiB (3%)
    Title                          : iTunes
    Language                       : Russian
    Service kind                   : Complete Main
    Default                        : Yes
    Forced                         : Yes
    Audio #2
    ID                             : 3
    Format                         : DTS XLL
    Format/Info                    : Digital Theater Systems
    Commercial name                : DTS-HD Master Audio
    Codec ID                       : A_DTS
    Duration                       : 1 h 35 min
    Bit rate mode                  : Variable
    Bit rate                       : 4 000 kb/s
    Channel(s)                     : 6 channels
    Channel layout                 : C L R Ls Rs LFE
    Sampling rate                  : 48.0 kHz
    Frame rate                     : 93.750 FPS (512 SPF)
    Bit depth                      : 24 bits
    Compression mode               : Lossless
    Stream size                    : 2.68 GiB (28%)
    Title                          : Original
    Language                       : English
    Default                        : No
    Forced                         : No
    Text
    ID                             : 4
    Format                         : UTF-8
    Codec ID                       : S_TEXT/UTF8
    Codec ID/Info                  : UTF-8 Plain Text
    Duration                       : 1 h 34 min
    Bit rate                       : 61 b/s
    Count of elements              : 1634
    Stream size                    : 42.4 KiB (0%)
    Title                          : SDH
    Language                       : English
    Default                        : No
    Forced                         : No
    Menu
    00:00:00.000                   : ru:Глава 01
    00:08:57.704                   : ru:Глава 02
    00:18:26.314                   : ru:Глава 03
    00:25:54.219                   : ru:Глава 04
    00:32:34.744                   : ru:Глава 05
    00:41:00.375                   : ru:Глава 06
    00:47:44.862                   : ru:Глава 07
    00:57:25.567                   : ru:Глава 08
    01:06:16.973                   : ru:Глава 09
    01:14:01.437                   : ru:Глава 10
    01:22:20.602                   : ru:Глава 11
    01:31:40.870                   : ru:Глава 12

    Скриншоты


    _________________


    Последний раз редактировалось: Root (2019-05-18 11:07), всего редактировалось 1 раз
    • NuRKHoNoFF
    • Не в сети
    • 5064
    • Пол: Мужской

    • Стаж: 6 месяцев 30 дней

    • Сообщений: 438

    • Откуда: Каттакурган

    • Провайдер: UzOnline UzOnline

    • Карма: 517


  • Создавать темы 17-Май-2019 23:17 (спустя 5 часов)

    Root, Тройная граница_2019_WEB-DLRip.avi Почему торрент файле другой фильм не понимаю? Исправтье пожалуйста добавтье настоящий торрент-файл в фильм!
    • HDBit
    • Не в сети
    • 5201
    • Пол: Мужской

    • Стаж: 5 месяцев 10 дней

    • Сообщений: 6

    • Провайдер: UzOnline UzOnline

    • Карма: 20


  • Создавать темы 18-Май-2019 08:55 (спустя 9 часов)

    NuRKHoNoFF писал(а):
    1256Root, Тройная граница_2019_WEB-DLRip.avi Почему торрент файле другой фильм не понимаю? Исправтье пожалуйста добавтье настоящий торрент-файл в фильм!
    Какой разница? может это тот фильм, но забыли писать правильно, такое бывает, иногда ошибаются люди
    • Root ®
    • Не в сети
    • 5065
    • Пол: Мужской

    • Стаж: 6 месяцев 30 дней

    • Сообщений: 69

    • Провайдер: UzOnline UzOnline

    • Telegram: xq14224

    • Карма: 102


  • Создавать темы 18-Май-2019 11:09 (спустя 2 часа 13 минут)

    NuRKHoNoFF писал(а):
    1256Root, Тройная граница_2019_WEB-DLRip.avi Почему торрент файле другой фильм не понимаю? Исправтье пожалуйста добавтье настоящий торрент-файл в фильм!

    Jupiter писал(а):
    1262
    NuRKHoNoFF писал(а):
    1256Root, Тройная граница_2019_WEB-DLRip.avi Почему торрент файле другой фильм не понимаю? Исправтье пожалуйста добавтье настоящий торрент-файл в фильм!
    Какой разница? может это тот фильм, но забыли писать правильно, такое бывает, иногда ошибаются люди
    Все исправил! у меня есть фильм "тройная граница" поэтому попутал торрент файл!

    _________________
    Показать сообщения:    
    Главная  Кинофильмы  Кинофильмы (48-120 FPS)

    Текущее время: 17-Июл 14:46

    Часовой пояс: UTC + 5



    Вы не можете начинать темы
    Вы не можете отвечать на сообщения
    Вы не можете редактировать свои сообщения
    Вы не можете удалять свои сообщения
    Вы не можете голосовать в опросах
    Вы не можете прикреплять файлы к сообщениям
    Вы не можете скачивать файлы