Уважаемые гости сайта! Добро Пожаловать на наш торрент трекер,где Вы можете бесплатно скачать любой Софт,Фильмы,Музыку и многое другое! А так же постоянно ведется набор модераторов и релизеров. Зарегистрируйтесь сейчас, чтобы получить доступ ко всем функциям. После регистрации или входа на сайт вы сможете создавать темы, отвечать на сообщения и скачивать файлы.

Игра престолов / Game of Thrones / Сезон 8 / Серии 1-6 из 6 (Джереми Подесва, Дэниэл Сакхайм, Джек Бендер, Марк Майлод, Мигель Сапочник) [2019, Драма, фэнтези, приключения, WEB-DLRip-AVC] Amedia

Ответить на тему
Статистика раздачи
Нет
 
     
 
 
Автор Сообщение

JAMSHIDDIN85 ®

Не в сети

5261

Пол: Мужской

Стаж: 2 месяца 20 дней

Сообщений: 99

Откуда: TASHKENT

Репутация: 145

[+]

Провайдер: TPS TPS

Тарифный план: Мир 1.5 MBit/сек TAS-IX 5 MBit/сек (с 8:00 до 20:00)

Наличие запрета:




Награды: 1 (Подробнее)
Speedy (Количество: 1)


[Профиль] ЛС

Создавать темы 07-Май-2019 14:30

Цитировать

Игра престолов / Game of Thrones -Год выпуска: 2019
Страна: США, Великобритания
Студия: Bighead Littlehead, Created By, Generator Entertainment, Home Box Office (HBO)
Жанр: Драма, фэнтези, приключения, экранизация
Продолжительность: 6 x ~ 00:55:00
Перевод(ы): Профессиональный (многоголосый, закадровый) - Amedia (Новамедия)-Режиссер: Джереми Подесва, Дэниэл Сакхайм, Джек Бендер, Марк Майлод, Мигель Сапочник-В ролях: Питер Динклэйдж, Иэн Глен, Николай Костер-Валдау, Лина Хиди, Эмилия Кларк, Кит Харингтон, Лиам Каннингэм, Кэрис ван Хаутен, Натали Дормер, Индира Варма, Софи Тёрнер, Мэйси Уильямс, Конлет Хилл, Элфи Оуэн-Аллен, Гвендолин Кристи, Джонатан Прайс, Майкл МакЭлхаттон, Иван Реон, Джозеф Науфаху, Ханна Уэддингхэм, Розабелла Лауренти Селлерс, Дэниэл Портман, Фэй Марсей, Оуэн Тил-Описание: «Игра престолов» новый сериал HBO, основанный на бестселлерах Джорджа Р.Р. Мартина. В мире, где лето и зимы длятся десятилетиями, на кону корона Вестероса. Предательство, похоть, интриги и сверхъестественные силы сотрясают все четыре стороны Королевства — от плетущего интриги юга, диких восточных земель, до замерзшего севера и древней Стены, что защищает королевство от тьмы за нею. Короли и королевы, рыцари и мятежники, лжецы и благородные люди борются за власть в кровавом сражении за Железный Трон.-Рейтинг:
-Качество: WEB-DLRip-AVC
Формат: MKV
Видео: MPEG-4 AVC, 1024х576 (16:9), 1850 Kbit/s, 23.976 fps, 0,131 bpp
Аудио 1: 48 kHz, AC3, 5.1 ch, 384 Kbps | RUS,
Аудио 2: 48 kHz, AC3, 5.1 ch, 384 Kbps | ENG
Субтитры: Русские (форсированные и полные), английские
Главы: Есть-

MediaInfo

General
Unique ID : 199102855137547094087441853672542072921 (0x95C9D0A89304F041BC5BB267874E7059)
Complete name : GOT.S08.2019.Amedia.AVC.ExKinoRay\GOT.S08E03.2019.Amedia.AVC.ExKinoRay.mkv
Format : Matroska
Format version : Version 2
File size : 1.33 GiB
Duration : 1 h 21 min
Overall bit rate : 2 327 kb/s
Movie name : Game of Thrones S08E03 2019 from ExKinoRay
Encoded date : UTC 2019-04-29 07:25:07
Writing application : mkvmerge v5.6.0 ('Kenya Kane') built on May 27 2012 16:44:04
Writing library : libebml v1.2.3 + libmatroska v1.3.0
Video
ID : 1
Format : AVC
Format/Info : Advanced Video Codec
Format profile : High@L4.1
Format settings : CABAC / 11 Ref Frames
Format settings, CABAC : Yes
Format settings, ReFrames : 11 frames
Codec ID : V_MPEG4/ISO/AVC
Duration : 1 h 21 min
Bit rate : 1 750 kb/s
Width : 1 024 pixels
Height : 576 pixels
Display aspect ratio : 16:9
Frame rate mode : Constant
Frame rate : 23.976 (23976/1000) FPS
Color space : YUV
Chroma subsampling : 4:2:0
Bit depth : 8 bits
Scan type : Progressive
Bits/(Pixel*Frame) : 0.124
Stream size : 998 MiB (73%)
Title : Enigma
Writing library : x264 core 152 r2851 ba24899
Encoding settings : cabac=1 / ref=11 / deblock=1:-2:-2 / analyse=0x3:0x113 / me=umh / subme=10 / psy=1 / psy_rd=1.04:0.10 / mixed_ref=1 / me_range=32 / chroma_me=1 / trellis=2 / 8x8dct=1 / cqm=0 / deadzone=21,11 / fast_pskip=0 / chroma_qp_offset=-3 / threads=12 / lookahead_threads=3 / sliced_threads=0 / nr=0 / decimate=0 / interlaced=0 / bluray_compat=0 / constrained_intra=0 / bframes=12 / b_pyramid=2 / b_adapt=2 / b_bias=0 / direct=3 / weightb=1 / open_gop=0 / weightp=2 / keyint=240 / keyint_min=23 / scenecut=40 / intra_refresh=0 / rc=2pass / mbtree=0 / bitrate=1750 / ratetol=1.0 / qcomp=0.60 / qpmin=0 / qpmax=51 / qpstep=4 / cplxblur=20.0 / qblur=0.5 / ip_ratio=1.40 / pb_ratio=1.30 / aq=3:0.90
Language : English
Default : Yes
Forced : No
Color range : Limited
Color primaries : BT.709
Transfer characteristics : BT.709
Matrix coefficients : BT.709
Audio #1
ID : 2
Format : AC-3
Format/Info : Audio Coding 3
Commercial name : Dolby Digital
Codec ID : A_AC3
Duration : 1 h 21 min
Bit rate mode : Constant
Bit rate : 192 kb/s
Channel(s) : 2 channels
Channel layout : L R
Sampling rate : 48.0 kHz
Frame rate : 31.250 FPS (1536 SPF)
Bit depth : 16 bits
Compression mode : Lossy
Stream size : 112 MiB (8%)
Title : MVO (Novamedia)
Language : Russian
Service kind : Complete Main
Default : Yes
Forced : No
Audio #2
ID : 3
Format : AC-3
Format/Info : Audio Coding 3
Commercial name : Dolby Digital
Codec ID : A_AC3
Duration : 1 h 21 min
Bit rate mode : Constant
Bit rate : 384 kb/s
Channel(s) : 6 channels
Channel layout : L R C LFE Ls Rs
Sampling rate : 48.0 kHz
Frame rate : 31.250 FPS (1536 SPF)
Bit depth : 16 bits
Compression mode : Lossy
Stream size : 225 MiB (17%)
Language : English
Service kind : Complete Main
Default : No
Forced : No
Text
ID : 4
Format : UTF-8
Codec ID : S_TEXT/UTF8
Codec ID/Info : UTF-8 Plain Text
Language : English
Default : No
Forced : No
Menu
00:00:00.000 : en:Ratings
00:00:03.890 : en:Studio Logo
00:00:09.890 : en:Opening Credits
00:01:56.890 : en:The calm before the storm
00:06:57.890 : en:The Lord of Light enters the fight
00:13:38.890 : en:The dead are already here
00:20:07.890 : en:Silence in the crypts
00:20:58.890 : en:A snowstorm complicates the battle plan
00:29:42.890 : en:It's time to look the truth in the face
00:33:13.890 : en:Man the wall
00:44:05.890 : en:Wights infiltrate Winterfell
00:49:52.890 : en:What do we say to the god of death?
00:54:18.890 : en:Facing off with the Night King
01:01:25.890 : en:The dead outnumber the living
01:06:25.890 : en:Death has many faces
01:17:27.890 : en:Dawn approaches
01:19:57.890 : en:End Credits
01:21:20.890 : en:Next Time



Последний раз редактировалось: JAMSHIDDIN85 (2019-05-21 15:25), всего редактировалось 2 раз(а)

-746

Создавать темы 07-Май-2019 21:20 (спустя 6 часов)

Топик был перенесен из форума Для пробных раздач в форум Американские и Европейские сериалы
NuRKHoNoFF
Показать сообщения:    
Ответить на тему

Текущее время: 27-Май 11:45

Часовой пояс: UTC + 5



Вы не можете начинать темы
Вы не можете отвечать на сообщения
Вы не можете редактировать свои сообщения
Вы не можете удалять свои сообщения
Вы не можете голосовать в опросах
Вы не можете прикреплять файлы к сообщениям
Вы не можете скачивать файлы