Уважаемые гости сайта! Добро Пожаловать на наш торрент трекер,где Вы можете бесплатно скачать любой Софт,Фильмы,Музыку и многое другое! А так же постоянно ведется набор модераторов и релизеров. Зарегистрируйтесь сейчас, чтобы получить доступ ко всем функциям. После регистрации или входа на сайт вы сможете создавать темы, отвечать на сообщения и скачивать файлы.

Ночной кошмар / I Wake Up Screaming (Х. Брюс Хамберстоун / H. Bruce Humberstone) [1941, США, фильм-нуар, триллер, криминал, BDRip 720p]

Ответить на тему
Статистика раздачи
Скачал: [ 2 ]
 
     
 
 
Автор Сообщение

.STRICER ®

Не в сети

5055

Пол: Мужской

Стаж: 6 месяцев 8 дней

Сообщений: 99

Откуда: Узбекистан

Репутация: 223

[+]

Провайдер: UzOnline UzOnline

Тарифный план: UNLIM 4

Наличие запрета:




Награды: 4 (Подробнее)
Активный Модератор (Количество: 1) Меломан (Количество: 1) Модератор (Количество: 1)


[Профиль] ЛС

Создавать темы 04-Май-2019 16:16

Цитировать

Ночной кошмар / I Wake Up Screaming

Год выпуска: 1941
Страна: США
Жанр: фильм-нуар, триллер, криминал
Продолжительность: 01:22:14
Перевод: Профессиональный (многоголосый закадровый) Светла
Субтитры: Английские (полные, для слабослышащих)
Режиссер: Х. Брюс Хамберстоун / H. Bruce Humberstone
В ролях: Бетти Грэйбл, Виктор Мэтьюр, Кэрол Лэндис, Лэйрд Крегар, Уильям Гарган, Алан Маубрэй
Описание: Полицейский Фрэнки Кристофер обвинен в убийстве модели Викки Линн, для которой он был покровителем некоторое время назад. В полицейском участке происходит допрос обвиняемого, во время которого он рассказывает двум инспекторам Эдду Корнеллу и Джерри МакДоналду как несколько месяцев назад он, поспорив со своими приятелями, согласился сделать из простой официантки королеву эстрады. Для этого они выбрали Вики - общую знакомую официантку, девушку красивую и амбициозную. Эксперимент резко пошел в гору, девушка буквально захватила сердца зрителей и даже умудрилась, заключить контракт с Голливудом, но внезапная смерть от руки неизвестного убийцы прервала ее жизнь. Полиция сразу заподозрила в этом преступлении Фрэнки, которого девушка не пожелала видеть рядом собой в Голливуде и теперь парню предстоит доказать что он не совершал убийства, хотя все обстоятельства указывают на него...
Качество: BDRip 720p
Фармат: AVI
Видео: XviD MPEG4 720x528 23,976FPS 8bit
Аудио: AC3 192Кбит/сек 48,0КГц 16bit

MediaInfo

Общее
Полное имя                               : D:\Ночной кошмар 1941 BDRip toledano.avi
Формат                                   : AVI
Формат/Информация                        : Audio Video Interleave
Размер файла                             : 1,46 Гбайт
Продолжительность                        : 1 ч. 22 м.
Общий поток                              : 2544 Кбит/сек
Программа кодирования                    : VirtualDubMod 1.5.10.3 | www.virtualdub-fr.org || (build 2550/release)
Библиотека кодирования                   : VirtualDubMod build 2550/release
Видео
Идентификатор                            : 0
Формат                                   : MPEG-4 Visual
Профиль формата                          : Advanced Simple@L5
Настройки формата                        : BVOP1
Параметр BVOP формата                    : 1
Параметр QPel формата                    : Нет
Параметр GMC формата                     : Без точки перехода
Параметр матрицы формата                 : Default (MPEG)
Идентификатор кодека                     : XVID
Идентификатор кодека/Подсказка           : XviD
Продолжительность                        : 1 ч. 22 м.
Битрейт                                  : 2343 Кбит/сек
Ширина                                   : 720 пикселей
Высота                                   : 528 пикселей
Соотношение сторон                       : 4:3
Частота кадров                           : 23,976 (24000/1001) кадра/сек
Цветовое пространство                    : YUV
Субдискретизация насыщенности            : 4:2:0
Битовая глубина                          : 8 бит
Тип развёртки                            : Прогрессивная
Метод сжатия                             : С потерями
Бит/(Пиксели*Кадры)                      : 0.257
Размер потока                            : 1,35 Гбайт (92%)
Библиотека кодирования                   : XviD 1.2.1 (UTC 2008-12-04)
Аудио
Идентификатор                            : 1
Формат                                   : AC-3
Формат/Информация                        : Audio Coding 3
Коммерческое название                    : Dolby Digital
Идентификатор кодека                     : 2000
Продолжительность                        : 1 ч. 22 м.
Вид битрейта                             : Постоянный
Битрейт                                  : 192 Кбит/сек
Каналы                                   : 2 канала
Channel layout                           : L R
Частота                                  : 48,0 КГц
Частота кадров                           : 31,250 кадров/сек (1536 SPF)
Битовая глубина                          : 16 бит
Метод сжатия                             : С потерями
Размер потока                            : 113 Мбайт (8%)
Выравнивание                             : Разделение по промежуткам
Продолжительность промежутка             : 42  мс. (1,00 видеокадр)
Время предзагрузки промежутка            : 500  мс.
ServiceKind/String                       : Complete Main

_________________
Показать сообщения:    
Ответить на тему

Текущее время: 26-Май 15:31

Часовой пояс: UTC + 5



Вы не можете начинать темы
Вы не можете отвечать на сообщения
Вы не можете редактировать свои сообщения
Вы не можете удалять свои сообщения
Вы не можете голосовать в опросах
Вы не можете прикреплять файлы к сообщениям
Вы не можете скачивать файлы