Уважаемые гости сайта! Добро Пожаловать на наш торрент трекер,где Вы можете бесплатно скачать любой Софт,Фильмы,Музыку и многое другое! А так же постоянно ведется набор модераторов и релизеров. Зарегистрируйтесь сейчас, чтобы получить доступ ко всем функциям. После регистрации или входа на сайт вы сможете создавать темы, отвечать на сообщения и скачивать файлы.

Время возмездия / Destroyer (Карин Кусама / Karyn Kusama) [2018, Боевик, триллер, драма, криминал, детектив, BDRip 1080p HEVC 10bit] iTunes

Ответить на тему
Статистика раздачи
Скачал: [ 1 ]
 
     
 
 
Автор Сообщение

-InVoKeR- ®

Не в сети

5057

Пол: Мужской

Стаж: 7 месяцев 9 дней

Сообщений: 234

Откуда: uztor.pw

Карма: 1103

[+]

Провайдер: UzOnline UzOnline

Наличие запрета:




Награды: 20 (Подробнее)
Admin (Количество: 1) Авторитет (Количество: 1) Активный релизер 1 (Количество: 1)


[Профиль] ЛС

Создавать темы 30-Апр-2019 20:44

Цитировать

Время возмездия / Destroyer--
Год выпуска: 2018
Страна: США
Жанр: Боевик, триллер, драма, криминал, детектив
Продолжительность: 02:00:57
Перевод: Дублированный iTunes-Режиссер: Карин Кусама / Karyn Kusama-В ролях: Николь Кидман, Тоби Кеббелл, Татьяна Маслани, Себастьян Стэн, Скут МакНэйри, Брэдли Уитфорд, Тоби Хасс, Джеймс Джордан, Бо Напп, Джэйд Петтиджон-Описание: Внедренная в преступную банду Лос-Анджелеса хрупкая Эрин невольно влюбляется в своего напарника. Однако её жизнь меняется навсегда, когда тщательно подготовленная спецоперация неожиданно идет не по плану. Спустя несколько лет прошлое вновь настигнет девушку, но уже сильную и безжалостную. Грядет время возмездия...-Качество: BDRip 1080p
Формат: MKV
Видео: HEVC, 1920x800, 23.976 fps, 4 747 kbps
Аудио: RUS | AC3, 6 ch, 384 kbps | iTunes
Аудио: ENG | AAC, 6 ch, 384 kbps | Original
Субтитры: Нет--

Тех. инфо

General
Unique ID : 191158959366495322201840546776502113151 (0x8FCFE05BA1A0ED809684F2F73046137F)
Complete name : D:\ТОРРЕНТ\Destroyer (2018) (1080p BluRay x265 10bit alltor).mkv
Format : Matroska
Format version : Version 4
File size : 4.66 GiB
Duration : 2 h 0 min
Overall bit rate : 5 519 kb/s
Movie name : Destroyer
Encoded date : UTC 2019-04-30 15:22:16
Writing application : mkvmerge v9.7.1 ('Pandemonium') 32bit
Writing library : libebml v1.3.4 + libmatroska v1.4.5
Video
ID : 1
Format : HEVC
Format/Info : High Efficiency Video Coding
Format profile : Main 10@L4@Main
Codec ID : V_MPEGH/ISO/HEVC
Duration : 2 h 0 min
Bit rate : 4 747 kb/s
Width : 1 920 pixels
Height : 800 pixels
Display aspect ratio : 2.40:1
Frame rate mode : Constant
Frame rate : 23.976 (24000/1001) FPS
Color space : YUV
Chroma subsampling : 4:2:0
Bit depth : 10 bits
Bits/(Pixel*Frame) : 0.129
Stream size : 4.01 GiB (86%)
Writing library : x265 2.9+14-3023bd8b05c0:[Windows][GCC 8.2.1][64 bit] 10bit
Encoding settings : cpuid=1111039 / frame-threads=3 / numa-pools=8 / wpp / no-pmode / no-pme / no-psnr / no-ssim / log-level=2 / input-csp=1 / input-res=1920x800 / interlace=0 / total-frames=174000 / level-idc=0 / high-tier=1 / uhd-bd=0 / ref=4 / no-allow-non-conformance / no-repeat-headers / annexb / no-aud / no-hrd / info / hash=0 / no-temporal-layers / open-gop / min-keyint=23 / keyint=250 / gop-lookahead=0 / bframes=4 / b-adapt=2 / b-pyramid / bframe-bias=0 / rc-lookahead=25 / lookahead-slices=4 / scenecut=40 / radl=0 / no-splice / no-intra-refresh / ctu=64 / min-cu-size=8 / rect / no-amp / max-tu-size=32 / tu-inter-depth=1 / tu-intra-depth=1 / limit-tu=0 / rdoq-level=2 / dynamic-rd=0.00 / no-ssim-rd / signhide / no-tskip / nr-intra=0 / nr-inter=0 / no-constrained-intra / strong-intra-smoothing / max-merge=3 / limit-refs=3 / limit-modes / me=3 / subme=3 / merange=57 / temporal-mvp / weightp / no-weightb / no-analyze-src-pics / deblock=0:0 / sao / no-sao-non-deblock / rd=4 / no-early-skip / rskip / no-fast-intra / no-tskip-fast / no-cu-lossless / no-b-intra / no-splitrd-skip / rdpenalty=0 / psy-rd=2.00 / psy-rdoq=1.00 / no-rd-refine / no-lossless / cbqpoffs=0 / crqpoffs=0 / rc=abr / bitrate=4750 / qcomp=0.60 / qpstep=4 / stats-write=0 / stats-read=2 / cplxblur=20.0 / qblur=0.5 / ipratio=1.40 / pbratio=1.30 / aq-mode=3 / aq-strength=1.00 / cutree / zone-count=0 / no-strict-cbr / qg-size=32 / no-rc-grain / qpmax=69 / qpmin=0 / no-const-vbv / sar=0 / overscan=0 / videoformat=5 / range=0 / colorprim=2 / transfer=2 / colormatrix=2 / chromaloc=0 / display-window=0 / max-cll=0,0 / min-luma=0 / max-luma=1023 / log2-max-poc-lsb=8 / vui-timing-info / vui-hrd-info / slices=1 / no-opt-qp-pps / no-opt-ref-list-length-pps / multi-pass-opt-rps / scenecut-bias=0.05 / no-opt-cu-delta-qp / aq-motion / no-hdr / no-hdr-opt / no-dhdr10-opt / no-idr-recovery-sei / analysis-reuse-level=5 / scale-factor=0 / refine-intra=0 / refine-inter=0 / refine-mv=0 / no-limit-sao / ctu-info=0 / no-lowpass-dct / refine-mv-type=0 / copy-pic=1 / max-ausize-factor=1.0 / no-dynamic-refine / no-single-sei
Default : Yes
Forced : No
Audio #1
ID : 2
Format : AC-3
Format/Info : Audio Coding 3
Commercial name : Dolby Digital
Codec ID : A_AC3
Duration : 2 h 0 min
Bit rate mode : Constant
Bit rate : 384 kb/s
Channel(s) : 6 channels
Channel layout : L R C LFE Ls Rs
Sampling rate : 48.0 kHz
Frame rate : 31.250 FPS (1536 SPF)
Bit depth : 16 bits
Compression mode : Lossy
Stream size : 332 MiB (7%)
Title : DUB
Language : Russian
Service kind : Complete Main
Default : Yes
Forced : No
Audio #2
ID : 3
Format : AAC LC
Format/Info : Advanced Audio Codec Low Complexity
Codec ID : A_AAC-2
Duration : 2 h 0 min
Bit rate : 384 kb/s
Channel(s) : 6 channels
Channel layout : C L R Ls Rs LFE
Sampling rate : 48.0 kHz
Frame rate : 46.875 FPS (1024 SPF)
Compression mode : Lossy
Delay relative to video : 20 ms
Stream size : 334 MiB (7%)
Language : English
Default : No
Forced : No
Menu
00:00:00.000 : en:Chapter 01
00:03:03.975 : en:Chapter 02
00:07:04.382 : en:Chapter 03
00:13:54.375 : en:Chapter 04
00:16:46.630 : en:Chapter 05
00:22:16.960 : en:Chapter 06
00:27:02.829 : en:Chapter 07
00:30:16.606 : en:Chapter 08
00:34:01.164 : en:Chapter 09
00:40:25.631 : en:Chapter 10
00:50:06.253 : en:Chapter 11
00:53:03.555 : en:Chapter 12
00:56:58.873 : en:Chapter 13
01:05:17.914 : en:Chapter 14
01:08:13.714 : en:Chapter 15
01:11:42.923 : en:Chapter 16
01:15:25.521 : en:Chapter 17
01:19:43.069 : en:Chapter 18
01:24:10.295 : en:Chapter 19
01:27:42.298 : en:Chapter 20
01:35:08.244 : en:Chapter 21
01:43:31.705 : en:Chapter 22
01:45:46.506 : en:Chapter 23
01:54:03.461 : en:Chapter 24
Показать сообщения:    
Ответить на тему

Текущее время: 27-Июн 14:08

Часовой пояс: UTC + 5



Вы не можете начинать темы
Вы не можете отвечать на сообщения
Вы не можете редактировать свои сообщения
Вы не можете удалять свои сообщения
Вы не можете голосовать в опросах
Вы не можете прикреплять файлы к сообщениям
Вы не можете скачивать файлы