Уважаемые гости сайта! Добро Пожаловать на наш торрент трекер,где Вы можете бесплатно скачать любой Софт,Фильмы,Музыку и многое другое! А так же постоянно ведется набор модераторов и релизеров. Зарегистрируйтесь сейчас, чтобы получить доступ ко всем функциям. После регистрации или входа на сайт вы сможете создавать темы, отвечать на сообщения и скачивать файлы.

Мстители: Финал / Avengers: Endgame (Энтони Руссо, Джо Руссо / Anthony Russo, Joe Russo) [2019, фантастика, фэнтези, боевик, приключения, TeleCine, Р]

Ответить на тему
Статистика раздачи
Скачал: [ 3 ]
 
     
 
 
Автор Сообщение

JAMSHIDDIN85 ®

Не в сети

5261

Пол: Мужской

Стаж: 3 месяца 20 дней

Сообщений: 120

Откуда: TASHKENT

Карма: 365

[+]

Провайдер: TPS TPS

Тарифный план: Мир 1.5 MBit/сек TAS-IX 5 MBit/сек (с 8:00 до 20:00)

Наличие запрета:




Награды: 3 (Подробнее)
Speedy (Количество: 1) Активный релизер 1 (Количество: 1) Знаменитость форума 1 (Количество: 1)


[Профиль] ЛС

Создавать темы 28-Апр-2019 21:06

Цитировать

Мстители: Финал / Avengers: Endgame -Год выпуска: 2019
Страна: США
Жанр: Фантастика, фэнтези, боевик, приключения
Продолжительность: 02:59:25
Перевод: Профессиональный (многоголосый) [@MUZOBOZ@]-Субтитры: Корейские-Режиссер: Энтони Руссо, Джо Руссо / Anthony Russo, Joe Russo-В ролях: Бри Ларсон, Линда Карделлини, Скарлетт Йоханссон, Карен Гиллан, Тесса Томпсон, Роберт Дауни мл., Крис Хемсворт, Крис Эванс, Эванджелин Лилли, Хейли Этвелл-Описание: Оставшиеся в живых члены команды Мстителей и их союзники должны разработать новый план, который поможет противостоять разрушительным действиям могущественного титана Таноса. После наиболее масштабной и трагической битвы в истории они не могут допустить ошибку.- -Качество: TeleCine (Реклама)
Формат: AVI
Видео: 720x304 (2.37:1), 23.976 fps, XviD build 50 ~1440 kbps avg, 0.27 bit/pixel
Аудио: 48 kHz, AC3 Dolby Digital, 2/0 (L,R) ch, ~192 kbps-

MediaInfo

General
Complete name : MSTiTeli.KoneTs.2O19.Pk.Telecine.21OOMB.avi
Format : AVI
Format/Info : Audio Video Interleave
Format profile : OpenDML
File size : 2.05 GiB
Duration : 2 h 59 min
Overall bit rate : 1 639 kb/s
Writing application : VirtualDubMod 1.10.5ru (build 2550/release)
Writing library : VirtualDubMod build 2550/release
Video
ID : 0
Format : MPEG-4 Visual
Format profile : Advanced Simple@L5
Format settings : BVOP2
Format settings, BVOP : 2
Format settings, QPel : No
Format settings, GMC : No warppoints
Format settings, Matrix : Default (MPEG)
Codec ID : XVID
Codec ID/Hint : XviD
Duration : 2 h 59 min
Bit rate : 1 435 kb/s
Width : 720 pixels
Height : 304 pixels
Display aspect ratio : 2.35:1
Frame rate : 23.976 (24000/1001) FPS
Color space : YUV
Chroma subsampling : 4:2:0
Bit depth : 8 bits
Scan type : Progressive
Compression mode : Lossy
Bits/(Pixel*Frame) : 0.273
Stream size : 1.80 GiB (88%)
Writing library : XviD 1.2.1 (UTC 2008-12-04)
Audio
ID : 1
Format : AC-3
Format/Info : Audio Coding 3
Codec ID : 2000
Duration : 2 h 59 min
Bit rate mode : Constant
Bit rate : 192 kb/s
Channel(s) : 2 channels
Channel positions : Front: L R
Sampling rate : 48.0 kHz
Frame rate : 31.250 FPS (1536 SPF)
Bit depth : 16 bits
Compression mode : Lossy
Stream size : 246 MiB (12%)
Alignment : Split accross interleaves
Interleave, duration : 42 ms (1.00 video frame)
Interleave, preload duratio : 500 ms
Service kind : Complete Main

-746

Создавать темы 28-Апр-2019 21:15 (спустя 8 минут)

Топик был перенесен из форума Для пробных раздач в форум DVDScr, TS, CAMRip и т.п.
NuRKHoNoFF

NuRKHoNoFF

Не в сети

5064

Пол: Мужской

Стаж: 6 месяцев 9 дней

Сообщений: 375

Откуда: Каттакурган

Карма: 507

[+]

Провайдер: UzOnline UzOnline

Наличие запрета:




Награды: 10 (Подробнее)
Активный релизер 1 (Количество: 1) Активный релизер 2 (Количество: 1) Активный релизер 3 (Количество: 1)


[Профиль] ЛС

Создавать темы 28-Апр-2019 22:37 (спустя 1 час 30 минут)

Цитировать

JAMSHIDDIN85, Спасибо за нормально качество! +5 Репу! Продолжайте а том же духе! Удачи вам в работе!

JAMSHIDDIN85 ®

Не в сети

5261

Пол: Мужской

Стаж: 3 месяца 20 дней

Сообщений: 120

Откуда: TASHKENT

Карма: 365

[+]

Провайдер: TPS TPS

Тарифный план: Мир 1.5 MBit/сек TAS-IX 5 MBit/сек (с 8:00 до 20:00)

Наличие запрета:




Награды: 3 (Подробнее)
Speedy (Количество: 1) Активный релизер 1 (Количество: 1) Знаменитость форума 1 (Количество: 1)


[Профиль] ЛС

Создавать темы 29-Апр-2019 10:06 (спустя 11 часов)

Цитировать

ok
Показать сообщения:    
Ответить на тему

Текущее время: 27-Июн 14:13

Часовой пояс: UTC + 5



Вы не можете начинать темы
Вы не можете отвечать на сообщения
Вы не можете редактировать свои сообщения
Вы не можете удалять свои сообщения
Вы не можете голосовать в опросах
Вы не можете прикреплять файлы к сообщениям
Вы не можете скачивать файлы