Мстители: Финал / Avengers: Endgame (Энтони Руссо, Джо Руссо / Anthony Russo, Joe Russo) [2019, фантастика, фэнтези, боевик, приключения, TS 720р, Р] V2 :: UZTOR.PW Лучший трекер в зоне TAS-IX!
Регистрация ·
Имя: Пароль:  
· Забыли пароль?
Уважаемые гости сайта! Добро Пожаловать на наш торрент трекер,где Вы можете бесплатно скачать любой Софт,Фильмы,Музыку и многое другое! А так же постоянно ведется набор модераторов и релизеров. Зарегистрируйтесь сейчас, чтобы получить доступ ко всем функциям. После регистрации или входа на сайт вы сможете создавать темы, отвечать на сообщения и скачивать файлы.

Навигация по Торрент раздачам и Форум и Стол заказов и Группы

 Мстители: Финал / Avengers: Endgame (Энтони Руссо, Джо Руссо / Anthony Russo, Joe Russo) [2019, фантастика, фэнтези, боевик, приключения, TS 720р, Р] V2

Главная  Технический форум  Архив
Статистика раздачи
Буду качать: [ 1 ]
 
     
 
 
Автор Сообщение
  • .STRICER ®
  • Не в сети
  • Автор темы

  • 5055
  • Пол: Мужской

  • Стаж: 1 год 3 месяца

  • Сообщений: 157

  •  Узбекистан

  • Откуда: Узбекистан

  • Провайдер: UzOnline UzOnline

  • Тарифный план: UNLIM 6 / 6 Мбит/сек

  • Steam: 76561198949071853

  • Карма: 777


  • Наличие запрета:

  • Награды: 4 (Подробнее)
    Активный Модератор (Количество: 1) Меломан (Количество: 1) Модератор (Количество: 1) Примерный модератор (Количество: 1)
  • Создавать темы 26-Апр-2019 17:35

    Мстители: Финал / Avengers: Endgame-
    Год выпуска: 2019
    Страна: США
    Жанр: Фантастика, фэнтези, боевик, приключения
    Продолжительность: 2 ч. 54 м.
    Перевод: Профессиональный (многоголосый) [Колобок]
    Режиссер: Энтони Руссо, Джо Руссо / Anthony Russo, Joe Russo
    В ролях: Бри Ларсон, Линда Карделлини, Скарлетт Йоханссон, Карен Гиллан, Тесса Томпсон, Роберт Дауни мл., Крис Хемсворт, Крис Эванс, Эванджелин Лилли, Хейли Этвелл
    Описание: Оставшиеся в живых члены команды Мстителей и их союзники должны разработать новый план, который поможет противостоять разрушительным действиям могущественного титана Таноса. После наиболее масштабной и трагической битвы в истории они не могут допустить ошибку.
    Качество: TS.V2.720p
    Формат: mkv
    Видео: AVC | 3687Кбит/сек/4000Кбит/сек | 1280x528 | 23,976FPS | 8бит
    Аудио: AC3 | 384Кбит/сек | 2ch | 48КГц | 16бит [RUS]

    MediaInfo

    Общее
    Уникальный идентификатор                 : 235963844538472090355072281394268998469 (0xB184FBC00864BCCFA9416EF659320B45)
    Полное имя                               : D:\AvengersEndgame.2019.Pk.TS.V2.72Op.mkv
    Формат                                   : Matroska
    Версия формата                           : Version 2
    Размер файла                             : 4,95 Гбайт
    Продолжительность                        : 2 ч. 54 м.
    Режим общего битрейта                    : Переменный
    Общий поток                              : 4072 Кбит/сек
    Дата кодирования                         : UTC 2019-04-25 14:40:45
    Программа кодирования                    : mkvmerge v8.3.0 ('Over the Horizon') 64bit
    Библиотека кодирования                   : libebml v1.3.1 + libmatroska v1.4.2
    Видео
    Идентификатор                            : 1
    Формат                                   : AVC
    Формат/Информация                        : Advanced Video Codec
    Профиль формата                          : High@L4.1
    Настройки формата                        : CABAC / 4 Ref Frames
    Параметр CABAC формата                   : Да
    Параметр RefFrames формата               : 4 кадра
    Идентификатор кодека                     : V_MPEG4/ISO/AVC
    Продолжительность                        : 2 ч. 54 м.
    Вид битрейта                             : Переменный
    Битрейт                                  : 3687 Кбит/сек
    Максимальный битрейт                     : 4000 Кбит/сек
    Ширина                                   : 1280 пикселей
    Высота                                   : 528 пикселей
    Соотношение сторон                       : 2,40:1
    Режим частоты кадров                     : Постоянный
    Частота кадров                           : 23,976 (24000/1001) кадра/сек
    Стандарт вещания                         : Component
    Цветовое пространство                    : YUV
    Субдискретизация насыщенности            : 4:2:0
    Битовая глубина                          : 8 бит
    Тип развёртки                            : Прогрессивная
    Бит/(Пиксели*Кадры)                      : 0.228
    Размер потока                            : 4,48 Гбайт (91%)
    Default                                  : Да
    Forced                                   : Нет
    Цветовой диапазон                        : Limited
    Основные цвета                           : BT.709
    Характеристики трансфера                 : BT.709
    Коэффициенты матрицы                     : BT.709
    Аудио
    Идентификатор                            : 2
    Формат                                   : AC-3
    Формат/Информация                        : Audio Coding 3
    Коммерческое название                    : Dolby Digital
    Идентификатор кодека                     : A_AC3
    Продолжительность                        : 2 ч. 54 м.
    Вид битрейта                             : Постоянный
    Битрейт                                  : 384 Кбит/сек
    Каналы                                   : 2 канала
    Channel layout                           : L R
    Частота                                  : 48,0 КГц
    Частота кадров                           : 31,250 кадров/сек (1536 SPF)
    Битовая глубина                          : 16 бит
    Метод сжатия                             : С потерями
    Размер потока                            : 478 Мбайт (9%)
    ServiceKind/String                       : Complete Main
    Default                                  : Да
    Forced                                   : Нет

    _________________

    -
    Скачать Teredo

      -746

    • Сообщений: 183

    • Откуда: Космический Станция

    Создавать темы 18-Ноя-2019 00:07 (спустя 6 месяцев 21 день)

    Топик был перенесен из форума DVDScr, TS, CAMRip и т.п. в форум Архив
    -InVoKeR-
    Показать сообщения:    
    Главная  Технический форум  Архив

    Текущее время: 26-Фев 13:02

    Часовой пояс: UTC + 5



    Вы не можете начинать темы
    Вы не можете отвечать на сообщения
    Вы не можете редактировать свои сообщения
    Вы не можете удалять свои сообщения
    Вы не можете голосовать в опросах
    Вы не можете прикреплять файлы к сообщениям
    Вы не можете скачивать файлы