Лондонский обротень / Werewolf Of London [Стюарт Уокер][1935 Ужасы BDRip 720p] :: UZTOR.PW Лучший трекер в зоне TAS-IX!
Регистрация ·
Имя: Пароль:  
· Забыли пароль?
Уважаемые гости сайта! Добро Пожаловать на наш торрент трекер,где Вы можете бесплатно скачать любой Софт,Фильмы,Музыку и многое другое! А так же постоянно ведется набор модераторов и релизеров. Зарегистрируйтесь сейчас, чтобы получить доступ ко всем функциям. После регистрации или входа на сайт вы сможете создавать темы, отвечать на сообщения и скачивать файлы.

Навигация по Торрент раздачам и Форум и Стол заказов и Группы

 Лондонский обротень / Werewolf Of London [Стюарт Уокер][1935 Ужасы BDRip 720p]

Главная  Кинофильмы  Зарубежные кинофильмы  Фильмы до 2000 года
Статистика раздачи
Скачал: [ 1 ]
 
     
 
 
Автор Сообщение
  • .STRICER ®
  • Не в сети
  • Автор темы

  • 5055
  • Пол: Мужской

  • Стаж: 1 год 4 месяца

  • Сообщений: 154

  •  Узбекистан

  • Откуда: Узбекистан

  • Провайдер: UzOnline UzOnline

  • Тарифный план: UNLIM 6 / 6 Мбит/сек

  • Steam: 76561198949071853

  • Карма: 777


  • Наличие запрета:

  • Награды: 4 (Подробнее)
    Активный Модератор (Количество: 1) Меломан (Количество: 1) Модератор (Количество: 1) Примерный модератор (Количество: 1)
  • Создавать темы 22-Апр-2019 14:13

    Лондонский обротень / Werewolf Of London
    Год выпуска: 1935
    Страна: США, Universal
    Жанр: Ужасы
    Продолжительность: 01:11:56
    Перевод: Профессиональный (многоголосый, закадровый)
    Русские субтитры: нет
    Режиссер: Стюарт Уокер
    В ролях: Генри Халл, Уорнер Оланд, Валери Хобсон, Лестер Мэттьюз, Кларк Уилльямс, Спринг Байингтон
    Описание: В Тибете английский ботаник Уилфред Глендон находит единственный в мире цветок под названием Mariphasa, который, согласно легенде, черпает свою силу от луны. Едва сорвав его, ботаник был атакован оборотнем, который его укусил. Возвратившись в Лондон, Уилфред знакомится с доктором Йогами, который рассказывает ему, что цветок, привезенный из путешествия, есть противоядие от ликантропии. Это сообщение было с недоверием воспринято ботаником, но только до того момента…пока его руки не стали покрываться шерстью...

    Качество: BDRip 720p
    Формат: MKV
    Видео: AVC 960x720(4:3) 23.976FPS [English]
    Аудио1: AC3 192kb/s 2ch 48kHz [Russian]
    Аудио2: FLAC 216kb/s 2ch 48kHz [English] Org.
    Text: UTF8 [English]

    Дополнителная информация

    Оригинальность и патетичность характеризуют первое появление оборотня в американском кинематографе. Оборотень взял у волка и человека самые худшие его качества. И не забывайте, что оборотень убивает людей, которых он больше всего любит. Эта концепция приводит героя к использованию всех возможных средств, чтобы отдалиться от матери и жены. Стюарт Уокер отказался от примитивных и основополагающих эффектов фильмов ужасов и предпочел показать мучения «потерянной души», которая против своей воли стала героем. Грим сделал Джек Пирс, а спецэффекты-Джон Фултон.
    Возможно многие помнят этот фильм - его показывали в кинотеатрах госфильмофонда,и многие считали (и я в том числе), что это и есть тот самый знаменитый "Человек-волк". Когда я посмотрел "Человека-волка" с Чейни-младшим, я был разочарован, так как "Верфольф", снятый на 6 лет раньше, превосходит его по всем параметрам - и по актёрской игре, и по режиссёрской и операторской работе. Наибольшее впечатление производит сцена, когда оборотень идёт по залу с колоннами, и по мере прохождения за каждой колонной, его внешность постепенно изменяется от человека к волку.
    Несомненно этот фильм достоин быть в числе главных в коробке "Человек-волк", а не "бонусом", которым он является.

    MediaInfo

    General
    Unique ID                   : 29109255413409295768227569496988553533 (0x15E63D193632702889D5E58A6D17913D)
    Complete name               : D:\Werewolf.of.London.1935.BDRip.720p.mkv
    Format                      : Matroska
    Format version              : Version 4
    File size                   : 4.61 GiB
    Duration                    : 1 h 15 min
    Overall bit rate mode       : Variable
    Overall bit rate            : 8 800 kb/s
    Encoded date                : UTC 2018-10-25 08:12:18
    Writing application         : mkvmerge v25.0.0 ('Prog Noir') 64-bit
    Writing library             : libebml v1.3.6 + libmatroska v1.4.9
    Video
    ID                          : 1
    Format                      : AVC
    Format/Info                 : Advanced Video Codec
    Format profile              : High@L4
    Format settings             : CABAC / 12 Ref Frames
    Format settings, CABAC      : Yes
    Format settings, ReFrames   : 12 frames
    Codec ID                    : V_MPEG4/ISO/AVC
    Duration                    : 1 h 15 min
    Bit rate                    : 8 390 kb/s
    Width                       : 960 pixels
    Height                      : 720 pixels
    Display aspect ratio        : 4:3
    Frame rate mode             : Constant
    Frame rate                  : 23.976 (24000/1001) FPS
    Color space                 : YUV
    Chroma subsampling          : 4:2:0
    Bit depth                   : 8 bits
    Scan type                   : Progressive
    Bits/(Pixel*Frame)          : 0.506
    Stream size                 : 4.40 GiB (95%)
    Title                       : Werewolf.of.London.1935.720p.BluRay.FLAC.x264-HaB
    Writing library             : x264 core 148 r2705 3f5ed56
    Encoding settings           : cabac=1 / ref=12 / deblock=1:-3:-3 / analyse=0x3:0x133 / me=tesa / subme=11 / psy=1 / psy_rd=1.10:0.00 / mixed_ref=1 / me_range=16 / chroma_me=1 / trellis=2 / 8x8dct=1 / cqm=0 / deadzone=21,11 / fast_pskip=0 / chroma_qp_offset=-2 / threads=18 / lookahead_threads=3 / sliced_threads=0 / nr=0 / decimate=0 / interlaced=0 / bluray_compat=0 / constrained_intra=0 / bframes=8 / b_pyramid=2 / b_adapt=2 / b_bias=0 / direct=3 / weightb=1 / open_gop=0 / weightp=2 / keyint=250 / keyint_min=23 / scenecut=40 / intra_refresh=0 / rc=crf / mbtree=0 / crf=18.6 / qcomp=0.70 / qpmin=0 / qpmax=69 / qpstep=4 / ip_ratio=1.20 / pb_ratio=1.20 / aq=3:0.70
    Language                    : English
    Default                     : Yes
    Forced                      : No
    Audio #1
    ID                          : 2
    Format                      : AC-3
    Format/Info                 : Audio Coding 3
    Commercial name             : Dolby Digital
    Codec ID                    : A_AC3
    Duration                    : 1 h 15 min
    Bit rate mode               : Constant
    Bit rate                    : 192 kb/s
    Channel(s)                  : 2 channels
    Channel layout              : L R
    Sampling rate               : 48.0 kHz
    Frame rate                  : 31.250 FPS (1536 SPF)
    Bit depth                   : 16 bits
    Compression mode            : Lossy
    Stream size                 : 103 MiB (2%)
    Title                       : MVO
    Language                    : Russian
    Service kind                : Complete Main
    Default                     : Yes
    Forced                      : No
    Audio #2
    ID                          : 3
    Format                      : FLAC
    Format/Info                 : Free Lossless Audio Codec
    Codec ID                    : A_FLAC
    Duration                    : 1 h 15 min
    Bit rate mode               : Variable
    Bit rate                    : 216 kb/s
    Channel(s)                  : 2 channels
    Channel layout              : L R
    Sampling rate               : 48.0 kHz
    Frame rate                  : 11.719 FPS (4096 SPF)
    Bit depth                   : 16 bits
    Compression mode            : Lossless
    Stream size                 : 116 MiB (2%)
    Title                       : Original
    Writing library             : libFLAC 1.2.1 (UTC 2007-09-17)
    Language                    : English
    Default                     : No
    Forced                      : No
    Text
    ID                          : 4
    Format                      : UTF-8
    Codec ID                    : S_TEXT/UTF8
    Codec ID/Info               : UTF-8 Plain Text
    Duration                    : 1 h 12 min
    Bit rate                    : 66 b/s
    Count of elements           : 1060
    Stream size                 : 35.4 KiB (0%)
    Language                    : English
    Default                     : No
    Forced                      : No
    Menu
    00:00:00.000                : en:Chapter 1
    00:01:13.948                : en:Chapter 2
    00:05:47.347                : en:Chapter 3
    00:08:43.231                : en:Chapter 4
    00:14:56.020                : en:Chapter 5
    00:18:00.245                : en:Chapter 6
    00:23:27.531                : en:Chapter 7
    00:27:45.246                : en:Chapter 8
    00:33:11.781                : en:Chapter 9
    00:35:30.253                : en:Chapter 10
    00:42:49.358                : en:Chapter 11
    00:46:37.294                : en:Chapter 12
    00:50:31.611                : en:Chapter 13
    00:56:31.471                : en:Chapter 14
    01:00:56.277                : en:Chapter 15
    01:05:56.535                : en:Chapter 16
    01:08:21.013                : en:Chapter 17
    01:14:35.012                : en:Chapter 18

    _________________

    -
    Скачать Teredo
    Показать сообщения:    
    Главная  Кинофильмы  Зарубежные кинофильмы  Фильмы до 2000 года

    Текущее время: 06-Апр 17:26

    Часовой пояс: UTC + 5



    Вы не можете начинать темы
    Вы не можете отвечать на сообщения
    Вы не можете редактировать свои сообщения
    Вы не можете удалять свои сообщения
    Вы не можете голосовать в опросах
    Вы не можете прикреплять файлы к сообщениям
    Вы не можете скачивать файлы