Уважаемые гости сайта! Добро Пожаловать на наш торрент трекер,где Вы можете бесплатно скачать любой Софт,Фильмы,Музыку и многое другое! А так же постоянно ведется набор модераторов и релизеров. Зарегистрируйтесь сейчас, чтобы получить доступ ко всем функциям. После регистрации или входа на сайт вы сможете создавать темы, отвечать на сообщения и скачивать файлы.

Звездные войны. Эпизод III: Месть Ситхов / Star Wars. Episode III: Revenge of the Sith (George Lucas) [2005, Фантастика, фэнтези, боевик, приключения, BDRip 60FPS] by NNNB

Ответить на тему
Статистика раздачи
Нет
 
     
 
 
Автор Сообщение

.STRICER ®

Не в сети

5055

Пол: Мужской

Стаж: 6 месяцев 8 дней

Сообщений: 99

Откуда: Узбекистан

Репутация: 223

[+]

Провайдер: UzOnline UzOnline

Тарифный план: UNLIM 4

Наличие запрета:




Награды: 4 (Подробнее)
Активный Модератор (Количество: 1) Меломан (Количество: 1) Модератор (Количество: 1)


[Профиль] ЛС

Создавать темы 18-Апр-2019 16:20

Цитировать

Звездные войны: Эпизод 3 - Месть Ситхов / Star Wars: Episode III - Revenge of the Sith by NNNBГод выхода: 2005
Страна: США
Жанр: Фантастика, фэнтези, боевик, приключения
Продолжительность: 02:20:05
Режиссер: Джордж Лукас / George Lucas
Перевод: Дублированный, Профессиональный (двухголосый, закадровый), Авторский (А.Гаврилов), Авторский (В.Королев)
В ролях: Юэн МакГрегор (Obi-Wan Kenobi), Натали Портман (Padmé), Хейден Кристенсен (Anakin Skywalker), Иэн МакДайармид (Supreme Chancellor Palpatine), Сэмюэл Л. Джексон (Mace Windu), Джимми Смитс (Senator Bail Organa), Фрэнк Оз (Yoda, озвучка), Энтони Дэниелс (C-3PO), Кристофер Ли (Count Dooku), Киша Касл-Хьюз (Queen of Naboo)
Язык субтитров: Русский , Английский
Вид субтитров: полные (отключаемые) (UTF-8)
Чаптеры: (Главы): Есть
Описание:
Со времен, описанных во втором эпизоде, прошло 3 года. Энакин окончательно встает на темную сторону силы и превращается в Дарта Вейдера. Республика гибнет под ударами крепнущей Империи, Джедаи теряют контроль над галактикой, а Падме готовится к тому, чтобы стать матерью. Все эти события будут разворачиваться на фоне грандиозной битвы, знаменующей финал Клонических войн…
Качество: BDRip(1080p) | Формат: mkv
Видео: AVC / 14.2Mb/s / 1920x816 / 59.940FPS / 8bits [English]
Аудио №1: AC3 / 448kb/s / 6ch / 31.250FPS / 48kHz [Russian]
Аудио №2: AC3 / 448kb/s / 6ch / 31.250FPS / 48kHz [Russian]
Аудио №3: AC3 / 448kb/s / 6ch / 31.250FPS / 48kHz [Russian]
Аудио №4: AC3 / 448kb/s / 6ch / 31.250FPS / 48kHz [Russian]
Аудио №5: AC3 / 640kb/s / 6ch / 31.250FPS / 48kHz [English]
Субтекст: UTF-8 RUS / RUS / ENG
-

MediaInfo

General
Unique ID                   : 170542833291775889117824534137942828877 (0x804D5ADD97940FA381A1F9500697E74D)
Complete name               : D:\Zvezdnye.vojny.Mest.Sithov.(2005).BDRip.1080p.[envy].[60fps].mkv
Format                      : Matroska
Format version              : Version 2
File size                   : 16.3 GiB
Duration                    : 2 h 20 min
Overall bit rate            : 16.6 Mb/s
Movie name                  : Звездные войны: Месть Ситхов.(2005).BDRip.1080p.[envy].[60fps]
Encoded date                : UTC 2014-03-06 16:55:28
Writing application         : mkvmerge v5.8.0 ('No Sleep / Pillow') built on Sep  2 2012 15:37:04
Writing library             : libebml v1.2.3 + libmatroska v1.3.0
Video
ID                          : 1
Format                      : AVC
Format/Info                 : Advanced Video Codec
Format profile              : High@L4.1
Format settings             : CABAC / 5 Ref Frames
Format settings, CABAC      : Yes
Format settings, ReFrames   : 5 frames
Codec ID                    : V_MPEG4/ISO/AVC
Duration                    : 2 h 20 min
Bit rate                    : 14.2 Mb/s
Width                       : 1 920 pixels
Height                      : 816 pixels
Display aspect ratio        : 2.35:1
Frame rate mode             : Constant
Frame rate                  : 59.940 (60000/1001) FPS
Color space                 : YUV
Chroma subsampling          : 4:2:0
Bit depth                   : 8 bits
Scan type                   : Progressive
Bits/(Pixel*Frame)          : 0.152
Stream size                 : 13.6 GiB (83%)
Title                       : Звездные войны: Месть Ситхов.(2005).BDRip.1080p.[envy].[60fps]
Writing library             : x264 core 140 r2377 1ca7bb9
Encoding settings           : cabac=1 / ref=5 / deblock=1:-2:-1 / analyse=0x3:0x133 / me=umh / subme=11 / psy=1 / psy_rd=1.00:0.00 / mixed_ref=1 / me_range=32 / chroma_me=1 / trellis=2 / 8x8dct=1 / cqm=0 / deadzone=21,11 / fast_pskip=0 / chroma_qp_offset=-2 / threads=12 / lookahead_threads=1 / sliced_threads=0 / nr=0 / decimate=1 / interlaced=0 / bluray_compat=0 / constrained_intra=0 / bframes=5 / b_pyramid=2 / b_adapt=2 / b_bias=0 / direct=3 / weightb=1 / open_gop=0 / weightp=2 / keyint=250 / keyint_min=25 / scenecut=40 / intra_refresh=0 / rc=2pass / mbtree=0 / bitrate=14238 / ratetol=2.0 / qcomp=0.60 / qpmin=0 / qpmax=69 / qpstep=4 / cplxblur=20.0 / qblur=0.5 / ip_ratio=1.40 / pb_ratio=1.30 / aq=2:0.80
Language                    : English
Default                     : Yes
Forced                      : No
Audio #1
ID                          : 2
Format                      : AC-3
Format/Info                 : Audio Coding 3
Commercial name             : Dolby Digital
Codec ID                    : A_AC3
Duration                    : 2 h 20 min
Bit rate mode               : Constant
Bit rate                    : 448 kb/s
Channel(s)                  : 6 channels
Channel layout              : L R C LFE Ls Rs
Sampling rate               : 48.0 kHz
Frame rate                  : 31.250 FPS (1536 SPF)
Bit depth                   : 16 bits
Compression mode            : Lossy
Stream size                 : 449 MiB (3%)
Title                       : Dub
Language                    : Russian
Service kind                : Complete Main
Default                     : Yes
Forced                      : No
Audio #2
ID                          : 3
Format                      : AC-3
Format/Info                 : Audio Coding 3
Commercial name             : Dolby Digital
Codec ID                    : A_AC3
Duration                    : 2 h 20 min
Bit rate mode               : Constant
Bit rate                    : 448 kb/s
Channel(s)                  : 6 channels
Channel layout              : L R C LFE Ls Rs
Sampling rate               : 48.0 kHz
Frame rate                  : 31.250 FPS (1536 SPF)
Bit depth                   : 16 bits
Compression mode            : Lossy
Stream size                 : 449 MiB (3%)
Title                       : Tycoon-Studio
Language                    : Russian
Service kind                : Complete Main
Default                     : No
Forced                      : No
Audio #3
ID                          : 4
Format                      : AC-3
Format/Info                 : Audio Coding 3
Commercial name             : Dolby Digital
Codec ID                    : A_AC3
Duration                    : 2 h 20 min
Bit rate mode               : Constant
Bit rate                    : 448 kb/s
Channel(s)                  : 6 channels
Channel layout              : L R C LFE Ls Rs
Sampling rate               : 48.0 kHz
Frame rate                  : 31.250 FPS (1536 SPF)
Bit depth                   : 16 bits
Compression mode            : Lossy
Stream size                 : 449 MiB (3%)
Title                       : Гаврилов
Language                    : Russian
Service kind                : Complete Main
Default                     : No
Forced                      : No
Audio #4
ID                          : 5
Format                      : AC-3
Format/Info                 : Audio Coding 3
Commercial name             : Dolby Digital
Codec ID                    : A_AC3
Duration                    : 2 h 20 min
Bit rate mode               : Constant
Bit rate                    : 448 kb/s
Channel(s)                  : 6 channels
Channel layout              : L R C LFE Ls Rs
Sampling rate               : 48.0 kHz
Frame rate                  : 31.250 FPS (1536 SPF)
Bit depth                   : 16 bits
Compression mode            : Lossy
Stream size                 : 449 MiB (3%)
Title                       : Korolev
Language                    : Russian
Service kind                : Complete Main
Default                     : No
Forced                      : No
Audio #5
ID                          : 6
Format                      : AC-3
Format/Info                 : Audio Coding 3
Commercial name             : Dolby Digital
Codec ID                    : A_AC3
Duration                    : 2 h 20 min
Bit rate mode               : Constant
Bit rate                    : 640 kb/s
Channel(s)                  : 6 channels
Channel layout              : L R C LFE Ls Rs
Sampling rate               : 48.0 kHz
Frame rate                  : 31.250 FPS (1536 SPF)
Bit depth                   : 16 bits
Compression mode            : Lossy
Stream size                 : 641 MiB (4%)
Title                       : Eng
Language                    : English
Service kind                : Complete Main
Default                     : No
Forced                      : No
Text #1
ID                          : 7
Format                      : UTF-8
Codec ID                    : S_TEXT/UTF8
Codec ID/Info               : UTF-8 Plain Text
Title                       : rus forced
Language                    : Russian
Default                     : Yes
Forced                      : Yes
Text #2
ID                          : 8
Format                      : UTF-8
Codec ID                    : S_TEXT/UTF8
Codec ID/Info               : UTF-8 Plain Text
Title                       : rus full
Language                    : Russian
Default                     : No
Forced                      : No
Text #3
ID                          : 9
Format                      : UTF-8
Codec ID                    : S_TEXT/UTF8
Codec ID/Info               : UTF-8 Plain Text
Title                       : eng full
Language                    : English
Default                     : No
Forced                      : No
Menu
00:00:00.000                : :Chapter 01
00:00:23.522                : :Chapter 02
00:01:50.067                : :Chapter 03
00:08:28.132                : :Chapter 04
00:11:23.348                : :Chapter 05
00:18:33.737                : :Chapter 06
00:23:40.460                : :Chapter 07
00:27:37.696                : :Chapter 08
00:29:12.959                : :Chapter 09
00:33:18.913                : :Chapter 10
00:35:45.434                : :Chapter 11
00:36:47.996                : :Chapter 12
00:38:21.465                : :Chapter 13
00:40:17.456                : :Chapter 14
00:41:18.601                : :Chapter 15
00:42:41.056                : :Chapter 16
00:48:01.585                : :Chapter 17
00:50:20.516                : :Chapter 18
00:52:24.931                : :Chapter 19
00:53:58.025                : :Chapter 20
00:56:26.465                : :Chapter 21
01:00:56.277                : :Chapter 22
01:01:56.545                : :Chapter 23
01:05:26.046                : :Chapter 24
01:07:40.597                : :Chapter 25
01:09:06.975                : :Chapter 26
01:10:52.997                : :Chapter 27
01:15:19.222                : :Chapter 28
01:19:15.250                : :Chapter 29
01:20:37.457                : :Chapter 30
01:24:20.595                : :Chapter 31
01:27:56.520                : :Chapter 32
01:29:57.390                : :Chapter 33
01:33:40.405                : :Chapter 34
01:36:39.460                : :Chapter 35
01:38:35.533                : :Chapter 36
01:41:24.368                : :Chapter 37
01:42:57.003                : :Chapter 38
01:48:18.783                : :Chapter 39
01:50:59.444                : :Chapter 40
01:52:44.006                : :Chapter 41
01:54:22.854                : :Chapter 42
01:56:54.923                : :Chapter 43
02:02:20.875                : :Chapter 44
02:03:32.863                : :Chapter 45
02:05:19.636                : :Chapter 46
02:07:37.106                : :Chapter 47
02:08:57.061                : :Chapter 48
02:12:04.957                : :Chapter 49
02:13:47.351                : :Chapter 50

_________________
Показать сообщения:    
Ответить на тему

Текущее время: 26-Май 15:24

Часовой пояс: UTC + 5



Вы не можете начинать темы
Вы не можете отвечать на сообщения
Вы не можете редактировать свои сообщения
Вы не можете удалять свои сообщения
Вы не можете голосовать в опросах
Вы не можете прикреплять файлы к сообщениям
Вы не можете скачивать файлы