Уважаемые гости сайта! Добро Пожаловать на наш торрент трекер,где Вы можете бесплатно скачать любой Софт,Фильмы,Музыку и многое другое! А так же постоянно ведется набор модераторов и релизеров. Зарегистрируйтесь сейчас, чтобы получить доступ ко всем функциям. После регистрации или входа на сайт вы сможете создавать темы, отвечать на сообщения и скачивать файлы.

ITVDN | Видео курс C++ Starter (2018) PCRec [H.264/720p-LQ | Rus]

Ответить на тему
Статистика раздачи
Нет
 
     
 
 
Автор Сообщение

.STRICER ®

Не в сети

5055

Пол: Мужской

Стаж: 7 месяцев 9 дней

Сообщений: 108

Откуда: Узбекистан

Карма: 225

[+]

Провайдер: UzOnline UzOnline

Тарифный план: UNLIM 4

Наличие запрета:




Награды: 4 (Подробнее)
Активный Модератор (Количество: 1) Меломан (Количество: 1) Модератор (Количество: 1)


[Профиль] ЛС

Создавать темы 10-Апр-2019 09:02

Цитировать

ITVDN | Видео курс C++ Starter (2018) PCRec [H.264/720p-LQ] Автор (режиссер): Владимир Виноградов
Производство: ITVDN
Язык: Русский
Жанр: Программирование, C++
Описание:
Курс С++ Starter состоит из 13 логически взаимосвязанных уроков, изучив которые вы освоите синтаксис языка С++. После прохождения данного курса, вы будете понимать основные принципы работы и построения программ. Освоите основы хранения информации в памяти компьютера. Вы сможете создавать свои небольшие программы, работать с памятью компьютера и с данными которые в ней хранятся.
Продолжительность: 09:13:00
Качество видео: PCRec
Формат: MP4
Видео: AVC/H.264, 1280x720, ~253-379 Kbps
Аудио: AAC, 2 ch, 255-256

-

Список уроков

1. Введение в язык программирования
2. Устройство памяти, системы счисления и хранение информации
3. Типы данных
4. Условные операторы
5. Логические операторы
6. Циклические конструкции в C++
7. Функции
8. Указатели
9. Работа с Функциями
10. Функции
11. Работа со строками
12. Пространства имен
13. Директивы препроцессора

MediaInfo

General
Complete name               : D:\ITVDN C++ STARTER\1. Введение в язык программирования.mp4
Format                      : MPEG-4
Format profile              : Base Media / Version 2
Codec ID                    : mp42 (mp42/mp41/isom/avc1)
File size                   : 114 MiB
Duration                    : 32 min 41 s
Overall bit rate mode       : Variable
Overall bit rate            : 486 kb/s
Encoded date                : UTC 2017-03-02 13:18:31
Tagged date                 : UTC 2017-03-02 13:18:31
Video
ID                          : 1
Format                      : AVC
Format/Info                 : Advanced Video Codec
Format profile              : High@L3.2
Format settings             : CABAC / 5 Ref Frames
Format settings, CABAC      : Yes
Format settings, ReFrames   : 5 frames
Codec ID                    : avc1
Codec ID/Info               : Advanced Video Coding
Duration                    : 32 min 41 s
Bit rate                    : 225 kb/s
Width                       : 1 280 pixels
Height                      : 720 pixels
Display aspect ratio        : 16:9
Frame rate mode             : Constant
Frame rate                  : 30.000 FPS
Color space                 : YUV
Chroma subsampling          : 4:2:0
Bit depth                   : 8 bits
Scan type                   : Progressive
Bits/(Pixel*Frame)          : 0.008
Stream size                 : 52.6 MiB (46%)
Writing library             : x264 core 148 r10 b97ae06
Encoding settings           : cabac=1 / ref=5 / deblock=1:0:0 / analyse=0x3:0x113 / me=hex / subme=8 / psy=1 / psy_rd=1.00:0.00 / mixed_ref=1 / me_range=16 / chroma_me=1 / trellis=2 / 8x8dct=1 / cqm=0 / deadzone=21,11 / fast_pskip=1 / chroma_qp_offset=-2 / threads=22 / lookahead_threads=3 / sliced_threads=0 / nr=0 / decimate=1 / interlaced=0 / bluray_compat=0 / stitchable=1 / constrained_intra=0 / bframes=3 / b_pyramid=2 / b_adapt=1 / b_bias=0 / direct=3 / weightb=1 / open_gop=0 / weightp=2 / keyint=infinite / keyint_min=30 / scenecut=40 / intra_refresh=0 / rc_lookahead=50 / rc=crf / mbtree=1 / crf=20.0 / qcomp=0.60 / qpmin=5 / qpmax=69 / qpstep=4 / vbv_maxrate=2750 / vbv_bufsize=7500 / crf_max=0.0 / nal_hrd=none / filler=0 / ip_ratio=1.40 / aq=1:1.00
Encoded date                : UTC 2017-03-02 13:18:31
Tagged date                 : UTC 2017-03-02 13:18:31
Color range                 : Limited
Color primaries             : BT.709
Transfer characteristics    : BT.709
Matrix coefficients         : BT.709
Codec configuration box     : avcC
Audio
ID                          : 2
Format                      : AAC LC
Format/Info                 : Advanced Audio Codec Low Complexity
Codec ID                    : mp4a-40-2
Duration                    : 32 min 41 s
Bit rate mode               : Variable
Bit rate                    : 256 kb/s
Channel(s)                  : 2 channels
Channel layout              : L R
Sampling rate               : 48.0 kHz
Frame rate                  : 46.875 FPS (1024 SPF)
Compression mode            : Lossy
Stream size                 : 59.9 MiB (53%)
Encoded date                : UTC 2017-03-02 13:18:31
Tagged date                 : UTC 2017-03-02 13:18:31

_________________
Показать сообщения:    
Ответить на тему

Текущее время: 27-Июн 14:10

Часовой пояс: UTC + 5



Вы не можете начинать темы
Вы не можете отвечать на сообщения
Вы не можете редактировать свои сообщения
Вы не можете удалять свои сообщения
Вы не можете голосовать в опросах
Вы не можете прикреплять файлы к сообщениям
Вы не можете скачивать файлы