Бамблби / Bumblebee (Трэвис Найт / Travis Knight) [2018, Фантастика, боевик, приключения, HDRip] [КПК] :: UZTOR.PW Лучший трекер в зоне TAS-IX!
Регистрация ·
Имя: Пароль:  
· Забыли пароль?
Уважаемые гости сайта! Добро Пожаловать на наш торрент трекер,где Вы можете бесплатно скачать любой Софт,Фильмы,Музыку и многое другое! А так же постоянно ведется набор модераторов и релизеров. Зарегистрируйтесь сейчас, чтобы получить доступ ко всем функциям. После регистрации или входа на сайт вы сможете создавать темы, отвечать на сообщения и скачивать файлы.

Навигация по Торрент раздачам и Форум

До нового обновления Торрент-Трекер осталось

 Бамблби / Bumblebee (Трэвис Найт / Travis Knight) [2018, Фантастика, боевик, приключения, HDRip] [КПК]

Главная  Мобильные устройства  Дополнительно  Видео
Статистика раздачи
Нет
 
     
 
 
Автор Сообщение
  • -InVoKeR- ®
  • Не в сети
  • 5057
  • VIP пользователь

  • Пол: Мужской

  • Стаж: 1 год

  • Сообщений: 420

  • Откуда: uztor.pw

  • Провайдер: UzOnline UzOnline

  • Тарифный план: Unlim 4 (Мир: 4 Мбит/с, Tas-ix: 100Мбит/с)

  • Steam: 76561198442747843

  • Telegram: i_Invoker

  • Карма: 1128


  • Наличие запрета:

  • Награды: 22 (Подробнее)
    Admin (Количество: 1) Авторитет (Количество: 1) Активный релизер 1 (Количество: 1) Активный релизер 2 (Количество: 1) Активный сидер 1 (Количество: 1)
  • Создавать темы 28-Мар-2019 13:39

    Бамблби / Bumblebee--
    Год выхода: 2018
    Страна: США, Китай
    Студия: Allspark Pictures, Bay Films, Di Bonaventura Pictures
    Жанр: Фантастика, боевик, приключения
    Продолжительность: 01:53:53
    Перевод: Дублированный [Лицензия]-Режиссер: Трэвис Найт-В ролях: Дилан О`Брайэн, Хейли Стайнфелд, Джастин Теру, Джон Сина, Анджела Бассетт, Памела Адлон, Мегин Прайс, Грей ДеЛайл, Питер Каллен, Кеннет Чои-О фильме: 1987 год. Скрываясь от преследования, Бамблби находит убежище на автомобильной свалке в калифорнийском городке, где живет Чарли. Девушке скоро исполнится 18, она стремится найти свое место в жизни. И именно она наталкивается на покореженного и сломленного Бамблби. Приведя его в чувство, Чарли моментально осознает: на ее пути оказался не простой желтый Фольксваген Жук.- -Качество: HDRip | КПК
    Формат: MP4
    Видео: AVC, 640x360 (16:9) at 23.976 fps, 500 kbps (0.091 bit/pixel)
    Аудио: AAC LC, 48.0 KHz, 2 ch, 128 kbps--

    MediaInfo

    General
    Complete name : E:\kino\Bumblebee.2018.RUS.HDRip.КПК.mp4
    Format : MPEG-4
    Format profile : Base Media
    Codec ID : isom
    File size : 515 MiB
    Duration : 1h 53mn
    Overall bit rate mode : Variable
    Overall bit rate : 632 Kbps
    Encoded date : UTC 2019-03-24 02:57:46
    Tagged date : UTC 2019-03-24 02:57:46
    Writing application : MkvToMp4 [www.mkvtomp4.ru] version 0.224 (x32)
    Video
    ID : 1
    Format : AVC
    Format/Info : Advanced Video Codec
    Format profile : High@L4.1
    Format settings, CABAC : Yes
    Format settings, ReFrames : 9 frames
    Codec ID : avc1
    Codec ID/Info : Advanced Video Coding
    Duration : 1h 53mn
    Bit rate : 500 Kbps
    Maximum bit rate : 2 036 Kbps
    Width : 640 pixels
    Height : 360 pixels
    Display aspect ratio : 16:9
    Frame rate mode : Constant
    Frame rate : 23.976 fps
    Color space : YUV
    Chroma subsampling : 4:2:0
    Bit depth : 8 bits
    Scan type : Progressive
    Bits/(Pixel*Frame) : 0.091
    Stream size : 407 MiB (79%)
    Writing library : x264 core 133 r2334 a3ac64b
    Encoding settings : cabac=1 / ref=9 / deblock=1:-3:-3 / analyse=0x3:0x113 / me=umh / subme=9 / psy=1 / psy_rd=1.00:0.00 / mixed_ref=1 / me_range=32 / chroma_me=1 / trellis=2 / 8x8dct=1 / cqm=0 / deadzone=21,11 / fast_pskip=0 / chroma_qp_offset=-2 / threads=6 / lookahead_threads=1 / sliced_threads=0 / nr=0 / decimate=1 / interlaced=0 / bluray_compat=0 / constrained_intra=0 / bframes=8 / b_pyramid=2 / b_adapt=2 / b_bias=0 / direct=3 / weightb=0 / open_gop=0 / weightp=1 / keyint=250 / keyint_min=23 / scenecut=40 / intra_refresh=0 / rc_lookahead=40 / rc=2pass / mbtree=0 / bitrate=500 / ratetol=1.0 / qcomp=0.70 / qpmin=0 / qpmax=69 / qpstep=4 / cplxblur=20.0 / qblur=0.5 / vbv_maxrate=7000 / vbv_bufsize=8000 / nal_hrd=none / ip_ratio=1.40 / pb_ratio=1.30 / aq=1:1.00
    Language : English
    Encoded date : UTC 2019-03-24 02:57:46
    Tagged date : UTC 2019-03-24 02:59:11
    Audio
    ID : 2
    Format : AAC
    Format/Info : Advanced Audio Codec
    Format profile : LC
    Codec ID : 40
    Duration : 1h 53mn
    Bit rate mode : Variable
    Bit rate : 128 Kbps
    Maximum bit rate : 136 Kbps
    Channel(s) : 2 channels
    Channel positions : Front: L R
    Sampling rate : 48.0 KHz
    Compression mode : Lossy
    Stream size : 104 MiB (20%)
    Language : Russian
    Encoded date : UTC 2019-03-24 02:58:48
    Tagged date : UTC 2019-03-24 02:59:11

    _________________
    Показать сообщения:    
    Главная  Мобильные устройства  Дополнительно  Видео

    Текущее время: 08-Дек 07:57

    Часовой пояс: UTC + 5



    Вы не можете начинать темы
    Вы не можете отвечать на сообщения
    Вы не можете редактировать свои сообщения
    Вы не можете удалять свои сообщения
    Вы не можете голосовать в опросах
    Вы не можете прикреплять файлы к сообщениям
    Вы не можете скачивать файлы