Уважаемые гости сайта! Добро Пожаловать на наш торрент трекер,где Вы можете бесплатно скачать любой Софт,Фильмы,Музыку и многое другое! А так же постоянно ведется набор модераторов и релизеров. Зарегистрируйтесь сейчас, чтобы получить доступ ко всем функциям. После регистрации или входа на сайт вы сможете создавать темы, отвечать на сообщения и скачивать файлы.

Аквамен / Aquaman [IMAX Edition] (Джеймс Ван / James Wan) [2018, Фантастика, фэнтези, BDRemux 1080p]

Ответить на тему
Статистика раздачи
Нет
 
     
 
 
Автор Сообщение

-InVoKeR- ®

Не в сети

5057

Пол: Мужской

Стаж: 6 месяцев 9 дней

Сообщений: 211

Откуда: uztor.pw

Репутация: 1091

[+]

Провайдер: UzOnline UzOnline

Наличие запрета:




Награды: 20 (Подробнее)
Admin (Количество: 1) Авторитет (Количество: 1) Активный релизер 1 (Количество: 1)


[Профиль] ЛС

Создавать темы 21-Мар-2019 23:56

Цитировать

Аквамен / Aquaman-- Год выхода: 2018
Страна: Австралия, США
Жанр: фантастика, фэнтези
Продолжительность: 02:23:21
Перевод #1: Дублированный Лицензия
Перевод #2: Профессиональный многоголосый HDRezka Studio-Режиссер: Джеймс Ван-В ролях: Джейсон Момоа, Эмбер Хёрд, Дольф Лундгрен, Николь Кидман, Джули Эндрюс, Патрик Уилсон, Уиллем Дефо, Грэм МакТавиш, Талия Джейд, Джимон Хонсу, Темуэра Моррисон, Майкл Бич-О фильме: Действие фильма разворачивается в необъятном и захватывающем подводном мире семи морей, а сюжет знакомит зрителей с историей происхождения получеловека-полуатланта Артура Карри и ключевыми событиями его жизни — теми, что заставят его не только столкнуться с самим собой, но и выяснить, достоин ли он быть тем, кем ему суждено… царем!- -Качество: BDRemux 1080p
Формат: MKV
Видео: MPEG-4 AVC, 1920x1080 at 23.976 fps, 22300 Kbps avg, High Profile 4.1
Аудио#1: 48 kHz, AC3, 5.1, 448 kbps avg | Русский (Дубляж)
Аудио#2: 48 kHz, AC3, 2.0, 192 kbps avg | Русский (Профессиональный многоголосый) HDRezka Studio
Аудио#3: 48 kHz, AC3, 2.0, 160 kbps avg | Украинский (Дубляж)
Аудио#4: 48 kHz, TrueHD, 7.1, 3579 kbps avg / 16-bit | Английский (Оригинал)
Аудио#5: 48 kHz, AC3, 5.1, 448 kbps avg | Английский (Оригинал)
Субтитры: Russian ([2), Ukrainian, English--

Знаете ли вы, что...

Фильм основан на серии комиксов «Аквамен» (2011-2013) писателя и сценариста комиксов Джеффа Джонса.
Прежде чем утвердить на роль Аквамена Джейсона Момоа, на эту роль рассматривали Мэтта Дэймона и Саймона Бейкера.
Одно время компания Леонардо ДиКаприо Appian Way Productions продюсировала фильм.

Тех. инфо

Общее
Уникальный идентификатор : 18420743855638054456814762760406865979 (0xDDBB4CAC3CD1B4F60C6C832E424983B)
Полное имя : D:\Аквамен BDRemux.mkv
Формат : Matroska
Версия формата : Version 4
Размер файла : 27,2 Гбайт
Продолжительность : 2 ч. 23 м.
Режим общего битрейта : Переменный
Общий поток : 27,2 Мбит/сек
Название фильма : Aquaman 2018 from селезень
Дата кодирования : UTC 2019-03-18 12:54:27
Программа кодирования : mkvmerge v32.0.0 ('Astral Progressions') 64-bit
Библиотека кодирования : libebml v1.3.7 + libmatroska v1.5.0
Видео
Идентификатор : 1
Формат : AVC
Формат/Информация : Advanced Video Codec
Профиль формата : High@L4.1
Настройки формата : CABAC / 2 Ref Frames
Параметр CABAC формата : Да
Параметр RefFrames формата : 2 кадра
Идентификатор кодека : V_MPEG4/ISO/AVC
Продолжительность : 2 ч. 23 м.
Вид битрейта : Переменный
Битрейт : 22,3 Мбит/сек
Ширина : 1920 пикселей
Высота : 1080 пикселей
Соотношение сторон : 16:9
Режим частоты кадров : Постоянный
Частота кадров : 23,976 (24000/1001) кадра/сек
Цветовое пространство : YUV
Субдискретизация насыщенности : 4:2:0
Битовая глубина : 8 бит
Тип развёртки : Прогрессивная
Бит/(Пиксели*Кадры) : 0.448
Размер потока : 22,3 Гбайт (82%)
Язык : English
Default : Да
Forced : Нет
Аудио #1
Идентификатор : 2
Формат : AC-3
Формат/Информация : Audio Coding 3
Коммерческое название : Dolby Digital
Идентификатор кодека : A_AC3
Продолжительность : 2 ч. 23 м.
Вид битрейта : Постоянный
Битрейт : 448 Кбит/сек
Каналы : 6 каналов
Channel layout : L R C LFE Ls Rs
Частота : 48,0 КГц
Частота кадров : 31,250 кадров/сек (1536 SPF)
Битовая глубина : 16 бит
Метод сжатия : С потерями
Размер потока : 459 Мбайт (2%)
Заголовок : Dub [License]
Язык : Russian
ServiceKind/String : Complete Main
Default : Да
Forced : Да
Аудио #2
Идентификатор : 3
Формат : AC-3
Формат/Информация : Audio Coding 3
Коммерческое название : Dolby Digital
Идентификатор кодека : A_AC3
Продолжительность : 2 ч. 23 м.
Вид битрейта : Постоянный
Битрейт : 192 Кбит/сек
Каналы : 2 канала
Channel layout : L R
Частота : 48,0 КГц
Частота кадров : 31,250 кадров/сек (1536 SPF)
Битовая глубина : 16 бит
Метод сжатия : С потерями
Размер потока : 197 Мбайт (1%)
Заголовок : MVO [HDRezka Studio]
Язык : Russian
ServiceKind/String : Complete Main
Default : Нет
Forced : Нет
Аудио #3
Идентификатор : 4
Формат : AC-3
Формат/Информация : Audio Coding 3
Коммерческое название : Dolby Digital
Идентификатор кодека : A_AC3
Продолжительность : 2 ч. 23 м.
Вид битрейта : Постоянный
Битрейт : 160 Кбит/сек
Каналы : 2 канала
Channel layout : L R
Частота : 48,0 КГц
Частота кадров : 31,250 кадров/сек (1536 SPF)
Битовая глубина : 16 бит
Метод сжатия : С потерями
Размер потока : 164 Мбайт (1%)
Заголовок : Dub [iTunes]
Язык : Ukrainian
ServiceKind/String : Complete Main
Default : Нет
Forced : Нет
Аудио #4
Идентификатор : 5
Формат : MLP FBA 16-ch
Формат/Информация : Meridian Lossless Packing FBA with 16-channel presentation
Коммерческое название : Dolby TrueHD with Dolby Atmos
Идентификатор кодека : A_TRUEHD
Продолжительность : 2 ч. 23 м.
Вид битрейта : Переменный
Битрейт : 3579 Кбит/сек
Максимальный битрейт : 6144 Кбит/сек
Каналы : 8 каналов
Channel layout : L R C LFE Ls Rs Lb Rb
Частота : 48,0 КГц
Частота кадров : 1200,000 кадров/сек (40 SPF)
Метод сжатия : Без потерь
Размер потока : 3,58 Гбайт (13%)
Заголовок : Original
Язык : English
Default : Нет
Forced : Нет
Number of dynamic objects : 15
Bed channel count : 1 канал
Bed channel configuration : LFE
Аудио #5
Идентификатор : 6
Формат : AC-3
Формат/Информация : Audio Coding 3
Коммерческое название : Dolby Digital
Идентификатор кодека : A_AC3
Продолжительность : 2 ч. 23 м.
Вид битрейта : Постоянный
Битрейт : 448 Кбит/сек
Каналы : 6 каналов
Channel layout : L R C LFE Ls Rs
Частота : 48,0 КГц
Частота кадров : 31,250 кадров/сек (1536 SPF)
Битовая глубина : 16 бит
Метод сжатия : С потерями
Размер потока : 459 Мбайт (2%)
Язык : English
ServiceKind/String : Complete Main
Default : Нет
Forced : Нет
Текст #1
Идентификатор : 7
Формат : UTF-8
Идентификатор кодека : S_TEXT/UTF8
Идентификатор кодека/Информация : UTF-8 Plain Text
Продолжительность : 2 ч. 14 м.
Битрейт : 1 бит/сек
ElementCount : 27
Размер потока : 1,23 Кбайт (0%)
Заголовок : Forced
Язык : Russian
Default : Да
Forced : Да
Текст #2
Идентификатор : 8
Формат : UTF-8
Идентификатор кодека : S_TEXT/UTF8
Идентификатор кодека/Информация : UTF-8 Plain Text
Продолжительность : 2 ч. 22 м.
Битрейт : 55 бит/сек
ElementCount : 1119
Размер потока : 58,0 Кбайт (0%)
Заголовок : Full
Язык : Russian
Default : Нет
Forced : Нет
Текст #3
Идентификатор : 9
Формат : UTF-8
Идентификатор кодека : S_TEXT/UTF8
Идентификатор кодека/Информация : UTF-8 Plain Text
Продолжительность : 2 ч. 22 м.
Битрейт : 1 бит/сек
ElementCount : 32
Размер потока : 1,54 Кбайт (0%)
Заголовок : Forced
Язык : Ukrainian
Default : Нет
Forced : Нет
Текст #4
Идентификатор : 10
Формат : UTF-8
Идентификатор кодека : S_TEXT/UTF8
Идентификатор кодека/Информация : UTF-8 Plain Text
Продолжительность : 2 ч. 14 м.
Битрейт : 38 бит/сек
ElementCount : 1132
Размер потока : 37,5 Кбайт (0%)
Язык : English
Default : Нет
Forced : Нет
Меню
00:00:00.000 : en:Chapter 01
00:11:09.294 : en:Chapter 02
00:22:11.622 : en:Chapter 03
00:30:11.018 : en:Chapter 04
00:40:28.718 : en:Chapter 05
00:50:24.647 : en:Chapter 06
01:01:15.755 : en:Chapter 07
01:08:57.091 : en:Chapter 08
01:21:41.271 : en:Chapter 09
01:34:50.435 : en:Chapter 10
01:39:37.430 : en:Chapter 11
01:49:32.816 : en:Chapter 12
02:01:36.539 : en:Chapter 13
02:10:19.895 : en:Chapter 14
Показать сообщения:    
Ответить на тему

Текущее время: 27-Май 11:47

Часовой пояс: UTC + 5



Вы не можете начинать темы
Вы не можете отвечать на сообщения
Вы не можете редактировать свои сообщения
Вы не можете удалять свои сообщения
Вы не можете голосовать в опросах
Вы не можете прикреплять файлы к сообщениям
Вы не можете скачивать файлы