Хищники / Predators (Нимрод Антал / Nimród Antal) [2010 г., фантастика, боевик, триллер, Blu-ray 1080p, HEVC 10bit] :: UZTOR.PW Лучший трекер в зоне TAS-IX!
Регистрация ·
Имя: Пароль:  
· Забыли пароль?
Уважаемые гости сайта! Добро Пожаловать на наш торрент трекер,где Вы можете бесплатно скачать любой Софт,Фильмы,Музыку и многое другое! А так же постоянно ведется набор модераторов и релизеров. Зарегистрируйтесь сейчас, чтобы получить доступ ко всем функциям. После регистрации или входа на сайт вы сможете создавать темы, отвечать на сообщения и скачивать файлы.

Навигация по Торрент раздачам и Форум и Стол заказов и Группы

 Хищники / Predators (Нимрод Антал / Nimród Antal) [2010 г., фантастика, боевик, триллер, Blu-ray 1080p, HEVC 10bit]

Главная  Кинофильмы  Кинофильмы (HEVC)  Фильмы 2000-2010 годов
Статистика раздачи
Нет
 
     
 
 
Автор Сообщение
  • logan7272 ®
  • Не в сети
  • Автор темы

  • 5260
  • Пол: Мужской

  • Стаж: 1 год

  • Сообщений: 6

  • Не указан Не указан

  • Провайдер: UzOnline UzOnline

  • Карма: 10


  • Наличие запрета:

  • Награды: Нет
  • Создавать темы 08-Мар-2019 21:41

    Хищники / Predators- Год выпуска: 2010
    Страна: США
    Жанр: фантастика, боевик, триллер, приключения
    Продолжительность: 01:46:53
    Перевод: Дублированный
    Субтитры: английские-Режиссер: Нимрод Антал / Nimród Antal-В ролях: Эдриан Броуди, Тофер Грейс, Алиси Брага, Уолтон Гоггинс, Олег Тактаров, Лоренс Фишбёрн, Дэнни Трехо, Луис Одзава Чжанцзянь, Махершала Али, Кэри Джонс, Брайан Стил, Дерек Мирс-Описание: Наемник Ройс невольно вынужден возглавить группу профессионалов, выполняющих загадочную миссию на неизвестной планете. За исключением опального доктора все они - хладнокровные убийцы: наемники, гангстеры, осужденные и участники отрядов смерти - людские «хищники». Но когда их начинает систематически преследовать и истреблять невообразимое чудовище, становится очевидно, что теперь они в роли своих жертв.-КиноПоиск: 6.460 (50 514)
    IMDb: 6.40 (187 165)-Качество: Blu-ray
    Формат: MKV
    Видео: HEVC, 1920x816, ~1000 kbps, 23,976 fps
    Аудио #1: Opus, 48 kHz, 264 kbps, 6 ch | Английский
    Аудио #2: AC3, 48 kHz, 384 kbps, 6 ch | Русский-

    MediaInfo

    General
    Unique ID : 312947448767998063209579779246509180214 (0xEB6F7C7B8C33E2469713CECF5456C536)
    Complete name : Predators.2010.x265.bluray.1080p.hevc frank rus Dub.mkv
    Format : Matroska
    Format version : Version 4 / Version 2
    File size : 1.24 GiB
    Duration : 1 h 46 min
    Overall bit rate : 1 658 kb/s
    Movie name : Predators (2010) - HELLYWOOD
    Encoded date : UTC 2019-03-08 07:43:12
    Writing application : mkvmerge v30.1.0 ('Forever And More') 32-bit
    Writing library : libebml v1.3.6 + libmatroska v1.4.9
    Attachments : MHeiHKS-Medium.otf
    Writing frontend : StaxRip v2.0.0.0
    Video
    ID : 1
    Format : HEVC
    Format/Info : High Efficiency Video Coding
    Format profile : Main 10@L4.1@Main
    Codec ID : V_MPEGH/ISO/HEVC
    Duration : 1 h 46 min
    Bit rate : 1 001 kb/s
    Width : 1 920 pixels
    Height : 816 pixels
    Display aspect ratio : 2.35:1
    Frame rate mode : Constant
    Frame rate : 23.976 (24000/1001) FPS
    Color space : YUV
    Chroma subsampling : 4:2:0
    Bit depth : 10 bits
    Bits/(Pixel*Frame) : 0.027
    Stream size : 765 MiB (60%)
    Writing library : x265 2.9+2-7e978ed93d60:[Windows][GCC 8.2.0][64 bit] 10bit
    Encoding settings : cpuid=1111039 / frame-threads=2 / numa-pools=4 / wpp / no-pmode / no-pme / no-psnr / no-ssim / log-level=2 / input-csp=1 / input-res=1920x816 / interlace=0 / total-frames=153759 / level-idc=41 / high-tier=1 / uhd-bd=0 / ref=3 / no-allow-non-conformance / no-repeat-headers / annexb / no-aud / no-hrd / info / hash=0 / no-temporal-layers / open-gop / min-keyint=23 / keyint=250 / gop-lookahead=0 / bframes=4 / b-adapt=0 / b-pyramid / bframe-bias=0 / rc-lookahead=15 / lookahead-slices=5 / scenecut=40 / radl=0 / no-intra-refresh / ctu=64 / min-cu-size=8 / no-rect / no-amp / max-tu-size=32 / tu-inter-depth=1 / tu-intra-depth=1 / limit-tu=0 / rdoq-level=0 / dynamic-rd=0.00 / no-ssim-rd / signhide / no-tskip / nr-intra=0 / nr-inter=0 / no-constrained-intra / strong-intra-smoothing / max-merge=2 / limit-refs=3 / no-limit-modes / me=1 / subme=2 / merange=57 / temporal-mvp / weightp / no-weightb / no-analyze-src-pics / deblock=0:0 / sao / no-sao-non-deblock / rd=2 / no-early-skip / rskip / fast-intra / no-tskip-fast / no-cu-lossless / no-b-intra / no-splitrd-skip / rdpenalty=0 / psy-rd=2.00 / psy-rdoq=0.00 / no-rd-refine / no-lossless / cbqpoffs=0 / crqpoffs=0 / rc=abr / bitrate=1000 / qcomp=0.60 / qpstep=4 / stats-write=0 / stats-read=2 / cplxblur=20.0 / qblur=0.5 / ipratio=1.40 / pbratio=1.30 / aq-mode=1 / aq-strength=1.00 / cutree / zone-count=0 / no-strict-cbr / qg-size=32 / no-rc-grain / qpmax=69 / qpmin=0 / no-const-vbv / sar=0 / overscan=0 / videoformat=5 / range=0 / colorprim=2 / transfer=2 / colormatrix=2 / chromaloc=0 / display-window=0 / max-cll=0,0 / min-luma=0 / max-luma=1023 / log2-max-poc-lsb=8 / vui-timing-info / vui-hrd-info / slices=1 / no-opt-qp-pps / no-opt-ref-list-length-pps / no-multi-pass-opt-rps / scenecut-bias=0.05 / no-opt-cu-delta-qp / no-aq-motion / no-hdr / no-hdr-opt / no-dhdr10-opt / no-idr-recovery-sei / analysis-reuse-level=5 / scale-factor=0 / refine-intra=0 / refine-inter=0 / refine-mv=0 / no-limit-sao / ctu-info=0 / no-lowpass-dct / refine-mv-type=0 / copy-pic=1 / max-ausize-factor=1.0 / no-dynamic-refine / no-single-sei
    Default : Yes
    Forced : No
    Audio #1
    ID : 2
    Format : Opus
    Codec ID : A_OPUS
    Duration : 1 h 46 min
    Bit rate : 265 kb/s
    Channel(s) : 6 channels
    Channel positions : Front: L C R, Rear: L R, LFE
    Sampling rate : 48.0 kHz
    Frame rate : 50.000 FPS (960 spf)
    Compression mode : Lossy
    Stream size : 203 MiB (16%)
    Language : English
    Default : No
    Forced : No
    Audio #2
    ID : 4
    Format : AC-3
    Format/Info : Audio Coding 3
    Mode extension : CM (complete main)
    Format settings, Endianness : Big
    Codec ID : A_AC3
    Duration : 1 h 46 min
    Bit rate mode : Constant
    Bit rate : 384 kb/s
    Channel(s) : 6 channels
    Channel positions : Front: L C R, Side: L R, LFE
    Sampling rate : 48.0 kHz
    Frame rate : 31.250 FPS (1536 spf)
    Bit depth : 16 bits
    Compression mode : Lossy
    Stream size : 294 MiB (23%)
    Title : Dub | DD 5.1 @ 384 kbps - Blu-Ray CEE
    Language : Russian
    Default : Yes
    Forced : No
    Text
    ID : 3
    Format : UTF-8
    Codec ID : S_TEXT/UTF8
    Codec ID/Info : UTF-8 Plain Text
    Duration : 1 h 45 min
    Bit rate : 27 b/s
    Count of elements : 1000
    Stream size : 21.1 KiB (0%)
    Language : English
    Default : No
    Forced : No
    Menu
    00:00:00.000 : en:
    00:05:27.034 : en:
    00:07:57.393 : en:
    00:13:33.521 : en:
    00:17:26.587 : en:
    00:20:02.409 : en:
    00:23:46.299 : en:
    00:26:19.119 : en:
    00:31:34.517 : en:
    00:34:56.511 : en:
    00:38:24.719 : en:
    00:41:57.056 : en:
    00:46:12.978 : en:
    00:49:57.786 : en:
    00:53:27.954 : en:
    00:57:43.126 : en:
    01:02:11.853 : en:
    01:05:48.903 : en:
    01:09:38.756 : en:
    01:14:16.994 : en:
    01:16:25.539 : en:
    01:19:26.928 : en:
    01:21:34.472 : en:
    01:23:51.901 : en:
    01:27:33.706 : en:
    01:30:48.234 : en:
    01:34:12.563 : en:
    01:41:17.696 : en:
    • -InVoKeR-
    • Не в сети
    • 5057
    • VIP пользователь

    • Пол: Мужской

    • Стаж: 1 год 4 месяца

    • Сообщений: 502

    •  Россия

    • Откуда: из Криптона

    • Провайдер: UzOnline UzOnline

    • Тарифный план: Unlim 4 (Мир: 4 Мбит/с, Tas-ix: 100Мбит/с)

    • Steam: 76561198442747843

    • Telegram: i_Invoker

    • Карма: 1118


    • Наличие запрета:

    • Награды: 22 (Подробнее)
      Admin (Количество: 1) Авторитет (Количество: 1) Активный релизер 1 (Количество: 1) Активный релизер 2 (Количество: 1) Активный сидер 1 (Количество: 1)
  • Создавать темы 08-Мар-2019 23:09 (спустя 1 час 28 минут)

    logan7272, источник в ЛС пожалуйста, или вы сами делаете HEVC?

    _________________
    • logan7272 ®
    • Не в сети
    • Автор темы

    • 5260
    • Пол: Мужской

    • Стаж: 1 год

    • Сообщений: 6

    • Не указан Не указан

    • Провайдер: UzOnline UzOnline

    • Карма: 10


    • Наличие запрета:

    • Награды: Нет
  • Создавать темы 09-Мар-2019 08:52 (спустя 9 часов)

    -InVoKeR-, o`zim qildim
    Показать сообщения:    
    Главная  Кинофильмы  Кинофильмы (HEVC)  Фильмы 2000-2010 годов

    Текущее время: 06-Апр 04:53

    Часовой пояс: UTC + 5



    Вы не можете начинать темы
    Вы не можете отвечать на сообщения
    Вы не можете редактировать свои сообщения
    Вы не можете удалять свои сообщения
    Вы не можете голосовать в опросах
    Вы не можете прикреплять файлы к сообщениям
    Вы не можете скачивать файлы