Наруто: Последний фильм / The Last: Naruto the Movie [2014, приключения, комедия, боевые искусства, сёнэн, HDTV 720p] (AVO) RainDeath :: UZTOR.PW Трекер для всех
Регистрация ·
Имя: Пароль:  
· Забыли пароль?

Навигация по Торрент раздачам и Форум

 Наруто: Последний фильм / The Last: Naruto the Movie [2014, приключения, комедия, боевые искусства, сёнэн, HDTV 720p] (AVO) RainDeath

Главная  Аниме  Сериалы  Naruto и Fairy Tail
Статистика раздачи
Нет
 
     
 
 
Автор Сообщение
  • -InVoKeR- ®
  • Не в сети
  • 5057
  • VIP пользователь

  • Пол: Мужской

  • Стаж: 9 месяцев 1 день

  • Сообщений: 284

  • Откуда: uztor.pw

  • Провайдер: UzOnline UzOnline

  • Тарифный план: Unlim 4 (99к, Мир: 4 Мбит/с, Tas-ix: 100Мбит/с)

  • Карма: 1118


  • Создавать темы 07-Мар-2019 22:07

    Наруто: Последний фильм / The Last: Naruto the Movie--
    Год выхода: 2014
    Страна: Япония
    Жанр: Приключения, комедия, боевые искусства, сёнэн
    Продолжительность: 01:51:47
    Перевод: Любительский Одноголосый закадровый [RainDeath]-Режиссер: Кобаяси Цунэо-О фильме: Cпустя несколько лет после событий в 699 главе манги "Наруто" происходят события в фильме... Хината влюбленна в Наруто, только вот сам Наруто этого не понимает. В один из вечеров появляется странный парень, который называет себя Тонери, при этом называя Хинату "Принцессой Бьякугана" и предлагает выйти замуж за него, а его подчиненные похищают сестру Хинаты - Ханаби... В это же время, всей Земле угрожает опасность, т.к. Луна начинает рассыпаться, а ее куски падать на Землю, разрушая все вокруг. Как же эти события связаны, и связаны ли они вообще? А также, чем же в итоге закончится история Наруто и его долгий-долгий путь ниндзя? - узнаете, посмотрев ПОСЛЕДНИЙ фильм!-Качество: HDTV 720p
    Формат: MKV
    Видео: AVC, 1280x720, 723 Kbps, 25fps
    Аудио: MP3, 48kHz, 2 ch, 128kbps | AVO | [RainDeath]
    --

    Тех. инфо

    General
    Unique ID : 170392648193592527917403125421317910423 (0x80306E2B26EC69699063309C6E296F97)
    Complete name : The Last.Naruto the Movie 2014.HDTVRip 720p-RainDeath.mkv
    Format : Matroska
    Format version : Version 2
    File size : 682 MiB
    Duration : 1h 51mn
    Overall bit rate : 853 Kbps
    Encoded date : UTC 2015-04-27 15:39:43
    Writing application : mkvmerge v3.3.0 ('Language') built on Mar 24 2010 14:59:24
    Writing library : libebml v0.8.0 + libmatroska v0.9.0
    Video
    ID : 1
    Format : AVC
    Format/Info : Advanced Video Codec
    Format profile : High 10@L4.0
    Format settings, CABAC : Yes
    Format settings, ReFrames : 9 frames
    Codec ID : V_MPEG4/ISO/AVC
    Duration : 1h 51mn
    Bit rate : 723 Kbps
    Width : 1 280 pixels
    Height : 720 pixels
    Display aspect ratio : 16:9
    Frame rate mode : Constant
    Frame rate : 25.000 fps
    Color space : YUV
    Chroma subsampling : 4:2:0
    Bit depth : 10 bits
    Scan type : Progressive
    Bits/(Pixel*Frame) : 0.031
    Stream size : 566 MiB (83%)
    Writing library : x264 core 146 r2538 121396c
    Encoding settings : cabac=1 / ref=9 / deblock=1:1:1 / analyse=0x3:0x113 / me=umh / subme=8 / psy=1 / psy_rd=0.40:0.00 / mixed_ref=1 / me_range=16 / chroma_me=1 / trellis=1 / 8x8dct=1 / cqm=0 / deadzone=21,11 / fast_pskip=1 / chroma_qp_offset=-2 / threads=12 / lookahead_threads=3 / sliced_threads=0 / nr=0 / decimate=1 / interlaced=0 / bluray_compat=0 / constrained_intra=0 / bframes=5 / b_pyramid=2 / b_adapt=2 / b_bias=0 / direct=3 / weightb=1 / open_gop=0 / weightp=2 / keyint=250 / keyint_min=25 / scenecut=40 / intra_refresh=0 / rc_lookahead=50 / rc=2pass / mbtree=1 / bitrate=723 / ratetol=1.0 / qcomp=0.60 / qpmin=0 / qpmax=81 / qpstep=4 / cplxblur=20.0 / qblur=0.5 / vbv_maxrate=25000 / vbv_bufsize=31250 / nal_hrd=none / filler=0 / ip_ratio=1.40 / aq=1:0.60
    Default : No
    Forced : No
    Audio
    ID : 2
    Format : MPEG Audio
    Format version : Version 1
    Format profile : Layer 3
    Mode : Joint stereo
    Mode extension : MS Stereo
    Codec ID : A_MPEG/L3
    Codec ID/Hint : MP3
    Duration : 1h 51mn
    Bit rate mode : Constant
    Bit rate : 128 Kbps
    Channel(s) : 2 channels
    Sampling rate : 48.0 KHz
    Compression mode : Lossy
    Stream size : 102 MiB (15%)
    Default : Yes
    Forced : No
    • logan7272
    • Не в сети
    • 5260
    • Пол: Мужской

    • Стаж: 5 месяцев 11 дней

    • Сообщений: 6

    • Провайдер: UzOnline UzOnline

    • Карма: 10


  • Создавать темы 08-Мар-2019 06:58 (спустя 8 часов)

    манда бор-InVoKeR-,
    Показать сообщения:    
    Главная  Аниме  Сериалы  Naruto и Fairy Tail

    Текущее время: 18-Авг 21:25

    Часовой пояс: UTC + 5



    Вы не можете начинать темы
    Вы не можете отвечать на сообщения
    Вы не можете редактировать свои сообщения
    Вы не можете удалять свои сообщения
    Вы не можете голосовать в опросах
    Вы не можете прикреплять файлы к сообщениям
    Вы не можете скачивать файлы