Аквамен / Aquaman (Джеймс Ван / James Wan) [2018 г., фантастика, фэнтези, боевик, WEB-DL 720p, HEVC ] iTunes :: UZTOR.PW Лучший трекер в зоне TAS-IX!
Регистрация ·
Имя: Пароль:  
· Забыли пароль?
Уважаемые гости сайта! Добро Пожаловать на наш торрент трекер,где Вы можете бесплатно скачать любой Софт,Фильмы,Музыку и многое другое! А так же постоянно ведется набор модераторов и релизеров. Зарегистрируйтесь сейчас, чтобы получить доступ ко всем функциям. После регистрации или входа на сайт вы сможете создавать темы, отвечать на сообщения и скачивать файлы.

Навигация по Торрент раздачам и Форум и Стол заказов и Группы

 Аквамен / Aquaman (Джеймс Ван / James Wan) [2018 г., фантастика, фэнтези, боевик, WEB-DL 720p, HEVC ] iTunes

Главная  Кинофильмы  Кинофильмы (HEVC)  Фильмы 2011-2018 годов
Статистика раздачи
Нет
 
     
 
 
Автор Сообщение
  • logan7272 ®
  • Не в сети
  • Автор темы

  • 5260
  • Пол: Мужской

  • Стаж: 1 год

  • Сообщений: 6

  • Не указан Не указан

  • Провайдер: UzOnline UzOnline

  • Карма: 10


  • Наличие запрета:

  • Награды: Нет
  • Создавать темы 07-Мар-2019 09:54

    Аквамен / Aquaman- Год выпуска: 2018
    Страна: Австралия, США
    Жанр: фантастика, фэнтези, боевик, приключения
    Продолжительность: 02:23:19
    Перевод: Дублированный [iTunes]
    Субтитры: английские-Режиссер: Джеймс Ван / James Wan-В ролях: Джейсон Момоа, Эмбер Хёрд, Уиллем Дефо, Патрик Уилсон, Николь Кидман, Дольф Лундгрен, Яхья Абдул-Матин II, Темуэра Моррисон, Луди Линь, Майкл Бич, Рэндолл Парк, Грэм МакТавиш-Описание: Действие фильма разворачивается в необъятном и захватывающем подводном мире семи морей, а сюжет знакомит зрителей с историей происхождения получеловека-полуатланта Артура Карри и ключевыми событиями его жизни - теми, что заставят его не только столкнуться с самим собой, но и выяснить, достоин ли он быть тем, кем ему суждено... царем!-КиноПоиск: 7.007 (56 680)
    IMDb: 7.30 (176 761)-Качество: WEB-DL
    Формат: MKV
    Видео: HEVC, 1280x720, ~1167 kbps, 23,976 fps
    Аудио #1: AAC LC-SBR, 75 kbps, 2 ch | Английский
    Аудио #2: AAC LC, 48 kHz, 128 kbps, 2 ch | Русский-

    MediaInfo

    General
    Unique ID : 30697524281422140228288687332634285605 (0x171820CCAED834E7CDD66FF75B625625)
    Complete name :Aquaman.2018.IMAX.720p.WEB-DL.2CH.x265.HEVC-PSA.mkv
    Format : Matroska
    Format version : Version 4 / Version 2
    File size : 1.38 GiB
    Duration : 2 h 23 min
    Overall bit rate : 1 374 kb/s
    Movie name : PSArips.com | Aquaman.2018.IMAX.720p.WEB-DL.2CH.x265.HEVC-PSA
    Encoded date : UTC 2019-03-07 03:31:16
    Writing application : mkvmerge v30.1.0 ('Forever And More') 32-bit
    Writing library : libebml v1.3.6 + libmatroska v1.4.9
    Video
    ID : 1
    Format : HEVC
    Format/Info : High Efficiency Video Coding
    Format profile : Main@L3.1@Main
    Codec ID : V_MPEGH/ISO/HEVC
    Duration : 2 h 23 min
    Bit rate : 1 168 kb/s
    Width : 1 280 pixels
    Height : 720 pixels
    Display aspect ratio : 16:9
    Frame rate mode : Constant
    Frame rate : 23.976 (24000/1001) FPS
    Color space : YUV
    Chroma subsampling : 4:2:0
    Bit depth : 8 bits
    Bits/(Pixel*Frame) : 0.053
    Stream size : 1.17 GiB (85%)
    Default : Yes
    Forced : No
    Audio #1
    ID : 2
    Format : AAC
    Format/Info : Advanced Audio Codec
    Format profile : HE-AAC / LC
    Codec ID : A_AAC
    Duration : 2 h 23 min
    Bit rate : 75.3 kb/s
    Channel(s) : 2 channels
    Channel positions : Front: L R
    Sampling rate : 48.0 kHz / 24.0 kHz
    Frame rate : 23.438 FPS (1024 spf)
    Compression mode : Lossy
    Delay relative to video : 23 ms
    Stream size : 77.2 MiB (5%)
    Language : English
    Default : No
    Forced : No
    Audio #2
    ID : 4
    Format : AAC
    Format/Info : Advanced Audio Codec
    Format profile : LC
    Codec ID : A_AAC
    Duration : 2 h 23 min
    Bit rate : 128 kb/s
    Channel(s) : 2 channels
    Channel positions : Front: L R
    Sampling rate : 48.0 kHz
    Frame rate : 46.875 FPS (1024 spf)
    Compression mode : Lossy
    Stream size : 131 MiB (9%)
    Default : Yes
    Forced : No
    Text
    ID : 3
    Format : UTF-8
    Codec ID : S_TEXT/UTF8
    Codec ID/Info : UTF-8 Plain Text
    Duration : 2 h 15 min
    Bit rate : 37 b/s
    Count of elements : 1133
    Stream size : 37.5 KiB (0%)
    Language : English
    Default : Yes
    Forced : No
    • Moki
    • Не в сети
    • 5061
    • Пол: Мужской

    • Стаж: 1 год 3 месяца

    • Сообщений: 71

    • Не указан Не указан

    • Откуда: Россия

    • Провайдер: UzOnline UzOnline

    • Карма: 341


    • Наличие запрета:

    • Награды: 7 (Подробнее)
      Активный сидер 1 (Количество: 1) Знаменитость форума 2 (Количество: 1) Игроман (Количество: 1) Легенда (Количество: 1) Ни дня без новостей (Количество: 1)
  • Создавать темы 08-Мар-2019 22:35 (спустя 1 день 12 часов)

    Так держать!

    _________________
    Показать сообщения:    
    Главная  Кинофильмы  Кинофильмы (HEVC)  Фильмы 2011-2018 годов

    Текущее время: 06-Апр 04:50

    Часовой пояс: UTC + 5



    Вы не можете начинать темы
    Вы не можете отвечать на сообщения
    Вы не можете редактировать свои сообщения
    Вы не можете удалять свои сообщения
    Вы не можете голосовать в опросах
    Вы не можете прикреплять файлы к сообщениям
    Вы не можете скачивать файлы