Уважаемые гости сайта! Добро Пожаловать на наш торрент трекер,где Вы можете бесплатно скачать любой Софт,Фильмы,Музыку и многое другое! А так же постоянно ведется набор модераторов и релизеров. Зарегистрируйтесь сейчас, чтобы получить доступ ко всем функциям. После регистрации или входа на сайт вы сможете создавать темы, отвечать на сообщения и скачивать файлы.

Хроники хищных городов / Mortal Engines (Кристиан Риверс / Christian Rivers) [2018, Фантастика, фэнтези, боевик, триллер, приключения, HDR, HEVC, UHDRip 2160p] iTunes

Ответить на тему
Статистика раздачи
Скачал: [ 1 ]
 
     
 
 
Автор Сообщение

-InVoKeR- ®

Не в сети

5057

Пол: Мужской

Стаж: 7 месяцев 9 дней

Сообщений: 234

Откуда: uztor.pw

Карма: 1103

[+]

Провайдер: UzOnline UzOnline

Наличие запрета:




Награды: 20 (Подробнее)
Admin (Количество: 1) Авторитет (Количество: 1) Активный релизер 1 (Количество: 1)


[Профиль] ЛС

Создавать темы 03-Мар-2019 11:32

Цитировать

Хроники хищных городов / Mortal Engines-- Год выпуска: 2018
Страна: Новая Зеландия, США
Жанр: Фантастика, фэнтези, боевик, триллер, приключения
Продолжительность: 02:08:21
Перевод: Дублированный iTunes
Субтитры: Английские-Режиссер: Кристиан Риверс / Christian Rivers-В ролях: Гера Хилмарсдоттир, Роберт Шиэн, Хьюго Уивинг, Джихе, Ронан Рафтери, Лейла Джордж, Патрик Мэлахайд, Стивен Лэнг, Колин Сэлмон, Марк Митчинсон, Меник Гунератне, Реге Пейдж, Фрэнки Адамс, Лейфур Сигурдарсон, Кан Уэст, Эндрю Лииз, Ки Чан, Сара Пирс, Марк Хэдлоу, Карен Писториус, Поппи Маклеод, Джоэл Тобек, Йосон Ан-Описание: Прошли тысячелетия после того, как мир настиг апокалипсис. Человечество адаптировалось и теперь живет по новым правилам. Гигантские движущиеся мегаполисы рассекают пустоши и поглощают маленькие города ради ресурсов. Том Нэтсуорти из нижнего уровня великого Лондона оказывается в смертельной опасности, когда на его пути появляется скрывающаяся от закона бунтарка Эстер Шоу. Они не должны были встретиться, но им суждено изменить будущее.-Качество: UHDRip 2160p
Формат: mkv
Видео: HEVC, 15100 Кбит/с, 3840x1604
Аудио #1: RUS AC3, 6 ch, 384 Кбит/с - Дублированный | iTunes
Аудио #2: ENG AC3, 2 ch, 256 Кбит/с | Оригинал
--

Тех. инфо

General
Unique ID : 243407171636285228969576470519044434737 (0xB71E841C118E5BF9F2B5BB8C3C24EB31)
Complete name : Mortal Engines 2018 UHDRip 2160p.mkv
Format : Matroska
Format version : Version 4
File size : 14.1 GiB
Duration : 2 h 8 min
Overall bit rate : 15.7 Mb/s
Movie name : Mortal Engines 2018 OT werecut PROD.
Encoded date : UTC 2019-03-02 04:09:36
Writing application : mkvmerge v30.1.0 ('Forever And More') 32-bit
Writing library : libebml v1.3.6 + libmatroska v1.4.9
Video
ID : 1
Format : HEVC
Format/Info : High Efficiency Video Coding
Commercial name : HDR10
Format profile : Main 10@L5@Main
Codec ID : V_MPEGH/ISO/HEVC
Duration : 2 h 8 min
Bit rate : 15.1 Mb/s
Width : 3 840 pixels
Height : 1 604 pixels
Display aspect ratio : 2.40:1
Frame rate mode : Constant
Frame rate : 23.976 (24000/1001) FPS
Color space : YUV
Chroma subsampling : 4:2:0
Bit depth : 10 bits
Bits/(Pixel*Frame) : 0.102
Stream size : 13.5 GiB (96%)
Language : English
Default : Yes
Forced : No
Color range : Limited
Color primaries : BT.2020
Transfer characteristics : PQ
Matrix coefficients : BT.2020 non-constant
Mastering display color primar : BT.2020
Mastering display luminance : min: 4.1250 cd/m2, max: 4000 cd/m2
Maximum Content Light Level : 974 cd/m2
Maximum Frame-Average Light Le : 333 cd/m2
Audio #1
ID : 2
Format : AC-3
Format/Info : Audio Coding 3
Commercial name : Dolby Digital
Codec ID : A_AC3
Duration : 2 h 8 min
Bit rate mode : Constant
Bit rate : 384 kb/s
Channel(s) : 6 channels
Channel layout : L R C LFE Ls Rs
Sampling rate : 48.0 kHz
Frame rate : 31.250 FPS (1536 SPF)
Bit depth : 16 bits
Compression mode : Lossy
Delay
relative to video : -292 ms
Stream size : 352 MiB (2%)
Language : Russian
Service kind : Complete Main
Default : Yes
Forced : Yes
Audio #2
ID : 3
Format : AC-3
Format/Info : Audio Coding 3
Commercial name : Dolby Digital
Codec ID : A_AC3
Duration : 2 h 8 min
Bit rate mode : Constant
Bit rate : 256 kb/s
Channel(s) : 2 channels
Channel layout : L R
Sampling rate : 48.0 kHz
Frame rate : 31.250 FPS (1536 SPF)
Bit depth : 16 bits
Compression mode : Lossy
Delay relative to video : -292 ms
Stream size : 235 MiB (2%)
Language : English
Service kind : Complete Main
Default : No
Forced : No
Text
ID : 4
Format : UTF-8
Codec ID : S_TEXT/UTF8
Codec ID/Info : UTF-8 Plain Text
Duration : 2 h 8 min
Bit rate : 48 b/s
Count of elements : 1852
Stream size : 45.7 KiB (0%)
Language : English
Default : No
Forced : No
Menu
00:00:00.000 : en:1
00:09:25.398 : en:2
00:16:14.306 : en:3
00:24:21.625 : en:4
00:31:25.589 : en:5
00:35:54.065 : en:6
00:41:28.816 : en:7
00:44:54.812 : en:8
00:50:17.801 : en:9
00:54:22.170 : en:10
01:00:52.392 : en:11
01:07:13.064 : en:12
01:11:13.846 : en:13
01:17:38.730 : en:14
01:25:26.614 : en:15
01:33:31.389 : en:16
01:39:29.538 : en:17
01:47:59.255 : en:18
01:52:12.548 : en:19
01:58:34.513 : en:20

-746

Создавать темы 16-Мар-2019 22:29 (спустя 13 дней)

Топик был перенесен из форума HD в форум UHD Blu-Ray & BDRemux
-InVoKeR-
Показать сообщения:    
Ответить на тему

Текущее время: 27-Июн 14:20

Часовой пояс: UTC + 5



Вы не можете начинать темы
Вы не можете отвечать на сообщения
Вы не можете редактировать свои сообщения
Вы не можете удалять свои сообщения
Вы не можете голосовать в опросах
Вы не можете прикреплять файлы к сообщениям
Вы не можете скачивать файлы