Уважаемые гости сайта! Добро Пожаловать на наш торрент трекер,где Вы можете бесплатно скачать любой Софт,Фильмы,Музыку и многое другое! А так же постоянно ведется набор модераторов и релизеров. Зарегистрируйтесь сейчас, чтобы получить доступ ко всем функциям. После регистрации или входа на сайт вы сможете создавать темы, отвечать на сообщения и скачивать файлы.

Аватар / Avatar (Джеймс Кэмерон / James Cameron) [2009, Фантастика, боевик, триллер, драма, приключения, HEVC UHD BDRemux 2160p] Extended Remastered TOP KP 250: 228

Ответить на тему
Статистика раздачи
Скачал: [ 1 ]
 
     
 
 
Автор Сообщение

-InVoKeR- ®

Не в сети

5057

Пол: Мужской

Стаж: 6 месяцев 8 дней

Сообщений: 211

Откуда: uztor.pw

Репутация: 1091

[+]

Провайдер: UzOnline UzOnline

Наличие запрета:




Награды: 20 (Подробнее)
Admin (Количество: 1) Авторитет (Количество: 1) Активный релизер 1 (Количество: 1)


[Профиль] ЛС

Создавать темы 28-Фев-2019 15:35

Цитировать

Аватар / Avatar- Год выхода: 2009
Жанр: Фантастика, боевик, триллер, драма, приключения
Страна: США, Великобритания
Продолжительность: 01:56:08
Перевод: Дублированный, профессиональный многоголосый, авторский
Субтитры: Русские, английские, украинские (forced)-Режиссер: Джеймс Кэмерон / James Cameron-В ролях: Сэм Уортингтон, Зои Салдана, Сигурни Уивер, Стивен Лэнг, Мишель Родригес, Джованни Рибизи, Джоэл Мур, Си Си Эйч Паундер, Уэс Стьюди, Лаз Алонсо, Дилип Рао, Мэтт Джералд, Шон Энтони Моран, Джейсон Уайт, Скотт Лоуренс, Келли Килгур, Дж. Патрик Питтс, Шон Патрик Мерфи, Питер Диллон, Кевин Дорман, Келсон Хендерсон, Дэвид Ван Хорн, Джейкоб Томури-О фильме: В середине XXII века на Земле наступил энергетический кризис. В поисках полезных ископаемых и новых источников энергии, далеко в космосе земляне обнаружили фантастически красивую планету, населённую синекожими гигантами-гуманоидами - на'ви. Атмосфера Пандоры была не пригодна для дыхания человека, но обнаруженный на планете ценный минерал анобтаниум мог решить все энергетические проблемы на Земле. Для изучения и освоения планеты люди используют "аватары" - гигантские синекожие тела, искусственно выращенные с использованием ДНК людей и на'ви. Управление осуществлялось виртуально донорами-операторами. Но неожиданно один из учёных-операторов погибает и для управления его аватаром с Земли прилетает брат-близнец. Джейк - бывший морпех, был тяжело ранен и теперь передвигается только в коляске. Наспех изучив инструкцию по управлению он ложится в камеру переносящую сознание оператора в мозг аватара...--Возраст: Рекомендовано зрителям, достигшим 16 лет
Рейтинг MPAA: детям до 13 лет просмотр не желателен-Качество: 4K UHD BDRemux 2160p | Remastered
Формат: MKV
Видео: HEVC, HDR, 3840x2160 (16:9), 23.976 fps, 64.9 Mb/s, 0.326 bit/pixel
Аудио #1: RUS | DTS, 48.0 kHz, 6 ch, 768 kb/s - Дублированный
Аудио #2: RUS | DTS MA, 48.0 kHz, 6 ch, 4 263 kb/s - Дублированный
Аудио #3: RUS | AC-3, 48.0 kHz, 6 ch, 448 kb/s, - Дублированный
Аудио #4: RUS | DTS MA, 48.0 kHz, 6 ch, 3 457 kb/s - MVO, Kubik v Kube
Аудио #5: RUS | DTS MA, 48.0 kHz, 6 ch, 3 461 kb/s - AVO, Ю. Сербин
Аудио #6: UKR | AC-3, 48.0 kHz, 6 ch, 448 kb/s, - Дублированный
Аудио #7: ENG | DTS MA, 48.0 kHz, 6 ch, 4 133 kb/s - Оригинал
--

Тех. инфо

Общее
Уникальный идентификатор : 79897418279502441042913120069083384701 (0x3C1BAEDB57344CB8EC7A8A047106CB7D)
Полное имя : Avatar.2009.Extended.UHD.Re-Grade.4000nit.2160p.HEVC.HDR.IVA(RUS.UKR.ENG).ExKinoRay.mkv
Формат : Matroska
Версия формата : Version 4
Размер файла : 102 Гбайт
Продолжительность : 2 ч. 58 м.
Режим общего битрейта : Переменный
Общий поток : 81,9 Мбит/сек
Название фильма : Аватар (Расширенная версия) / Avatar (Extended Cut) 2009 | UHD Re-Grade HDR 4000nit | IVA(RUS.UKR.ENG) | ExKinoRay
Дата кодирования : UTC 2018-09-06 14:06:52
Программа кодирования : mkvmerge v26.0.0 ('In The Game') 64-bit
Библиотека кодирования : libebml v1.3.6 + libmatroska v1.4.9
Обложка : Yes
Видео
Идентификатор : 1
Формат : HEVC
Формат/Информация : High Efficiency Video Coding
Коммерческое название : HDR10
Профиль формата : Main 10@L5.1@High
Идентификатор кодека : V_MPEGH/ISO/HEVC
Продолжительность : 2 ч. 58 м.
Битрейт : 64,9 Мбит/сек
Ширина : 3840 пикселей
Высота : 2160 пикселей
Соотношение сторон : 16:9
Режим частоты кадров : Постоянный
Частота кадров : 23,976 (24000/1001) кадра/сек
Цветовое пространство : YUV
Субдискретизация насыщенности : 4:2:0
Битовая глубина : 10 бит
Бит/(Пиксели*Кадры) : 0.326
Размер потока : 80,7 Гбайт (79%)
Заголовок : Avatar.2009.Extended.UHD.Re-Grade.4000nit
Язык : English
Default : Да
Forced : Нет
Цветовой диапазон : Limited
Основные цвета : BT.2020
Характеристики трансфера : PQ
Коэффициенты матрицы : BT.2020 non-constant
SEI_rbsp_stop_one_bit : Missing
MasteringDisplay_ColorPrimaries : Display P3
MasteringDisplay_Luminance : min: 0.0050 cd/m2, max: 4000 cd/m2
MaxCLL : 3000 cd/m2
MaxFALL : 600 cd/m2
Аудио #1
Идентификатор : 2
Формат : DTS
Формат/Информация : Digital Theater Systems
Идентификатор кодека : A_DTS
Продолжительность : 2 ч. 58 м.
Вид битрейта : Постоянный
Битрейт : 768 Кбит/сек
Каналы : 6 каналов
Channel layout : C L R Ls Rs LFE
Частота : 48,0 КГц
Частота кадров : 93,750 кадра/сек (512 SPF)
Битовая глубина : 24 бит
Метод сжатия : С потерями
Размер потока : 979 Мбайт (1%)
Заголовок : | Дублированный |
Язык : Russian
Default : Да
Forced : Нет
Аудио #2
Идентификатор : 3
Формат : DTS XLL
Формат/Информация : Digital Theater Systems
Коммерческое название : DTS-HD Master Audio
Идентификатор кодека : A_DTS
Продолжительность : 2 ч. 58 м.
Вид битрейта : Переменный
Битрейт : 4263 Кбит/сек
Каналы : 6 каналов
Channel layout : C L R Ls Rs LFE
Частота : 48,0 КГц
Частота кадров : 93,750 кадра/сек (512 SPF)
Битовая глубина : 24 бит
Метод сжатия : Без потерь
Размер потока : 5,30 Гбайт (5%)
Заголовок : | Дублированный |*
Язык : Russian
Default : Нет
Forced : Нет
Аудио #3
Идентификатор : 4
Формат : AC-3
Формат/Информация : Audio Coding 3
Коммерческое название : Dolby Digital
Идентификатор кодека : A_AC3
Продолжительность : 2 ч. 58 м.
Вид битрейта : Постоянный
Битрейт : 448 Кбит/сек
Каналы : 6 каналов
Channel layout : L R C LFE Ls Rs
Частота : 48,0 КГц
Частота кадров : 31,250 кадров/сек (1536 SPF)
Битовая глубина : 16 бит
Метод сжатия : С потерями
Размер потока : 571 Мбайт (1%)
Заголовок : | Дублированный, AC3 |
Язык : Russian
ServiceKind : Complete Main
Default : Нет
Forced : Нет
Аудио #4
Идентификатор : 5
Формат : AC-3
Формат/Информация : Audio Coding 3
Коммерческое название : Dolby Digital
Идентификатор кодека : A_AC3
Продолжительность : 2 ч. 58 м.
Вид битрейта : Постоянный
Битрейт : 448 Кбит/сек
Каналы : 6 каналов
Channel layout : L R C LFE Ls Rs
Частота : 48,0 КГц
Частота кадров : 31,250 кадров/сек (1536 SPF)
Битовая глубина : 16 бит
Метод сжатия : С потерями
Размер потока : 571 Мбайт (1%)
Заголовок : | Дублированный |
Язык : Ukrainian
ServiceKind : Complete Main
Default : Нет
Forced : Нет
Аудио #5
Идентификатор : 6
Формат : DTS XLL
Формат/Информация : Digital Theater Systems
Коммерческое название : DTS-HD Master Audio
Идентификатор кодека : A_DTS
Продолжительность : 2 ч. 58 м.
Вид битрейта : Переменный
Битрейт : 3457 Кбит/сек
Каналы : 6 каналов
Channel layout : C L R Ls Rs LFE
Частота : 48,0 КГц
Частота кадров : 93,750 кадра/сек (512 SPF)
Битовая глубина : 24 бит
Метод сжатия : Без потерь
Размер потока : 4,30 Гбайт (4%)
Заголовок : | MVO, Kubik v Kube |
Язык : Russian
Default : Нет
Forced : Нет
Аудио #6
Идентификатор : 7
Формат : DTS XLL
Формат/Информация : Digital Theater Systems
Коммерческое название : DTS-HD Master Audio
Идентификатор кодека : A_DTS
Продолжительность : 2 ч. 58 м.
Вид битрейта : Переменный
Битрейт : 3461 Кбит/сек
Каналы : 6 каналов
Channel layout : C L R Ls Rs LFE
Частота : 48,0 КГц
Частота кадров : 93,750 кадра/сек (512 SPF)
Битовая глубина : 24 бит
Метод сжатия : Без потерь
Размер потока : 4,31 Гбайт (4%)
Заголовок : | AVO, Ю. Сербин |
Язык : Russian
Default : Нет
Forced : Нет
Аудио #7
Идентификатор : 8
Формат : DTS XLL
Формат/Информация : Digital Theater Systems
Коммерческое название : DTS-HD Master Audio
Идентификатор кодека : A_DTS
Продолжительность : 2 ч. 58 м.
Вид битрейта : Переменный
Битрейт : 4133 Кбит/сек
Каналы : 6 каналов
Channel layout : C L R Ls Rs LFE
Частота : 48,0 КГц
Частота кадров : 93,750 кадра/сек (512 SPF)
Битовая глубина : 24 бит
Метод сжатия : Без потерь
Размер потока : 5,14 Гбайт (5%)
Заголовок : | Original |
Язык : English
Default : Нет
Forced : Нет
Текст #1
Идентификатор : 9
Формат : ASS
Идентификатор кодека : S_TEXT/ASS
Идентификатор кодека/Информация : Advanced Sub Station Alpha
Продолжительность : 2 ч. 41 м.
Битрейт : 8 бит/сек
ElementCount : 128
Метод сжатия : Без потерь
Размер потока : 9,56 Кбайт (0%)
Заголовок : Forced Stylized
Язык : Russian
Default : Нет
Forced : Да
Текст #2
Идентификатор : 10
Формат : ASS
Идентификатор кодека : S_TEXT/ASS
Идентификатор кодека/Информация : Advanced Sub Station Alpha
Продолжительность : 2 ч. 53 м.
Битрейт : 105 бит/сек
ElementCount : 1616
Метод сжатия : Без потерь
Размер потока : 135 Кбайт (0%)
Заголовок : Full Coloured
Язык : Russian
Default : Нет
Forced : Нет
Текст #3
Идентификатор : 11
Формат : UTF-8
Идентификатор кодека : S_TEXT/UTF8
Идентификатор кодека/Информация : UTF-8 Plain Text
Продолжительность : 2 ч. 46 м.
Битрейт : 11 бит/сек
ElementCount : 219
Размер потока : 13,5 Кбайт (0%)
Заголовок : Forced Coloured
Язык : Russian
Default : Нет
Forced : Да
Текст #4
Идентификатор : 12
Формат : UTF-8
Идентификатор кодека : S_TEXT/UTF8
Идентификатор кодека/Информация : UTF-8 Plain Text
Продолжительность : 2 ч. 43 м.
Битрейт : 2 бит/сек
ElementCount : 86
Размер потока : 3,04 Кбайт (0%)
Заголовок : Forced
Язык : Russian
Default : Да
Forced : Да
Текст #5
Идентификатор : 13
Формат : UTF-8
Идентификатор кодека : S_TEXT/UTF8
Идентификатор кодека/Информация : UTF-8 Plain Text
Продолжительность : 2 ч. 57 м.
Битрейт : 51 бит/сек
ElementCount : 1486
Размер потока : 67,2 Кбайт (0%)
Заголовок : Full
Язык : Russian
Default : Нет
Forced : Нет
Текст #6
Идентификатор : 14
Формат : UTF-8
Идентификатор кодека : S_TEXT/UTF8
Идентификатор кодека/Информация : UTF-8 Plain Text
Продолжительность : 2 ч. 53 м.
Битрейт : 71 бит/сек
ElementCount : 1722
Размер потока : 91,5 Кбайт (0%)
Заголовок : Full Coloured
Язык : Russian
Default : Нет
Forced : Нет
Текст #7
Идентификатор : 15
Формат : UTF-8
Идентификатор кодека : S_TEXT/UTF8
Идентификатор кодека/Информация : UTF-8 Plain Text
Продолжительность : 2 ч. 47 м.
Битрейт : 9 бит/сек
ElementCount : 246
Размер потока : 11,8 Кбайт (0%)
Заголовок : Forced
Язык : Ukrainian
Default : Нет
Forced : Да
Текст #8
Идентификатор : 16
Формат : UTF-8
Идентификатор кодека : S_TEXT/UTF8
Идентификатор кодека/Информация : UTF-8 Plain Text
Продолжительность : 1 ч. 59 м.
Битрейт : 2 бит/сек
ElementCount : 82
Размер потока : 1,92 Кбайт (0%)
Заголовок : Forced
Язык : English
Default : Нет
Forced : Да
Текст #9
Идентификатор : 17
Формат : UTF-8
Идентификатор кодека : S_TEXT/UTF8
Идентификатор кодека/Информация : UTF-8 Plain Text
Продолжительность : 2 ч. 53 м.
Битрейт : 40 бит/сек
ElementCount : 1683
Размер потока : 51,1 Кбайт (0%)
Заголовок : Full
Язык : English
Default : Нет
Forced : Нет
Текст #10
Идентификатор : 18
Формат : UTF-8
Идентификатор кодека : S_TEXT/UTF8
Идентификатор кодека/Информация : UTF-8 Plain Text
Продолжительность : 2 ч. 57 м.
Битрейт : 45 бит/сек
ElementCount : 2203
Размер потока : 58,6 Кбайт (0%)
Заголовок : SDH
Язык : English
Default : Нет
Forced : Нет
Текст #11
Идентификатор : 19
Формат : PGS
Идентификатор кодека : S_HDMV/PGS
Идентификатор кодека/Информация : Picture based subtitle format used on BDs/HD-DVDs
Продолжительность : 2 ч. 57 м.
Битрейт : 23,5 Кбит/сек
ElementCount : 2785
Размер потока : 29,8 Мбайт (0%)
Заголовок : Full
Язык : Russian
Default : Нет
Forced : Нет
Текст #12
Идентификатор : 20
Формат : PGS
Идентификатор кодека : S_HDMV/PGS
Идентификатор кодека/Информация : Picture based subtitle format used on BDs/HD-DVDs
Продолжительность : 2 ч. 57 м.
Битрейт : 24,7 Кбит/сек
ElementCount : 2801
Размер потока : 31,3 Мбайт (0%)
Заголовок : Full
Язык : English
Default : Нет
Forced : Нет
Текст #13
Идентификатор : 21
Формат : PGS
Идентификатор кодека : S_HDMV/PGS
Идентификатор кодека/Информация : Picture based subtitle format used on BDs/HD-DVDs
Продолжительность : 2 ч. 57 м.
Битрейт : 31,3 Кбит/сек
ElementCount : 4376
Размер потока : 39,8 Мбайт (0%)
Заголовок : SDH
Язык : English
Default : Нет
Forced : Нет
Текст #14
Идентификатор : 22
Формат : PGS
Идентификатор кодека : S_HDMV/PGS
Идентификатор кодека/Информация : Picture based subtitle format used on BDs/HD-DVDs
Продолжительность : 2 ч. 42 м.
Битрейт : 1520 бит/сек
ElementCount : 152
Размер потока : 1,77 Мбайт (0%)
Заголовок : Na'vi parts only
Язык : English
Default : Нет
Forced : Нет
Меню
00:00:00.000 : en:Lost Soul
00:05:25.575 : en:A New World
00:10:24.457 : en:You Are Not in Kansas Anymore
00:11:47.916 : en:"This Is Your Avatar Now, Jake."
00:15:59.208 : en:"This Is Why We're Here..."
00:23:54.892 : en:Meeting Trudy
00:24:40.000 : en:Colonel Quaritch
00:27:54.548 : en:First Sortie
00:30:27.617 : en:Abandoned Schoolhouse
00:32:04.464 : en:Thanator Chase
00:37:16.526 : en:A Sign
00:39:08.054 : en:Viperwolves
00:41:18.476 : en:Neytiri
00:49:16.912 : en:The Omaticaya Clan
00:55:42.214 : en:Covert Report
01:01:09.416 : en:The Hallelujah Mountains
01:07:03.227 : en:Learn Fast or Die
01:11:50.222 : en:A Mother's Pain
01:18:07.891 : en:Banshee Rookery
01:22:38.120 : en:First Flight
01:26:12.709 : en:Clan Hunt
01:27:54.436 : en:Last Shadow
01:33:00.408 : en:A Son of the Omaticaya
01:37:36.642 : en:Willow Glade Destruction
01:46:49.236 : en:Conflict Escalation
01:50:02.596 : en:"You Will Never Be One of the People!"
01:51:53.582 : en:Assault on Home Tree
01:58:30.895 : en:Aftermath
02:02:13.284 : en:Escape From Hell's Gate
02:07:51.664 : en:"There's Something We Gotta Do..."
02:09:30.554 : en:Toruk Macto
02:12:36.615 : en:"She's Real"
02:16:03.363 : en:Recuiting the Clans
02:19:31.655 : en:Preamble to Battle
02:23:59.631 : en:Battle for Pandora
02:32:13.291 : en:Fall of the Heroes
02:34:52.908 : en:Eywa
02:40:02.259 : en:Quaritch Fight
02:46:30.814 : en:"I See You"
02:46:48.498 : en:My Brother
02:48:56.793 : en:Transformation
02:51:32.073 : en:End Credits

-746

Создавать темы 16-Мар-2019 22:27 (спустя 16 дней)

Топик был перенесен из форума Фильмы 2000-2010 годов в форум UHD Blu-Ray & BDRemux
-InVoKeR-
Показать сообщения:    
Ответить на тему

Текущее время: 26-Май 15:13

Часовой пояс: UTC + 5



Вы не можете начинать темы
Вы не можете отвечать на сообщения
Вы не можете редактировать свои сообщения
Вы не можете удалять свои сообщения
Вы не можете голосовать в опросах
Вы не можете прикреплять файлы к сообщениям
Вы не можете скачивать файлы