Бэтмен: Начало / Batman Begins (Кристофер Нолан / Christopher Nolan) [2005, Боевик, приключения, BDRemux] :: UZTOR.PW Лучший трекер в зоне TAS-IX!
 
Уважаемые гости сайта! Добро Пожаловать на наш торрент трекер,где Вы можете бесплатно скачать любой Софт,Фильмы,Музыку и многое другое! А так же постоянно ведется набор модераторов и релизеров. Зарегистрируйтесь сейчас, чтобы получить доступ ко всем функциям. После регистрации или входа на сайт вы сможете создавать темы, отвечать на сообщения и скачивать файлы.

Навигация по Торрент раздачам и Форум и Стол заказов и Группы



 Бэтмен: Начало / Batman Begins (Кристофер Нолан / Christopher Nolan) [2005, Боевик, приключения, BDRemux]

Главная  Кинофильмы  Зарубежные кинофильмы  Blu-Ray & BDRemux
Статистика раздачи
Нет
 
     
 
 
Автор Сообщение
  • -InVoKeR- ®
  • Не в сети
  • Автор темы

  • 5057
  • VIP пользователь

  • Пол: Мужской

  • Стаж: 1 год 6 месяцев

  • Сообщений: 565

  •  Узбекистан

  • Откуда: из Криптона

  • Провайдер: UzOnline UzOnline

  • Тарифный план: Unlim 4 (Мир: 4 Мбит/с, Tas-ix: 100Мбит/с)

  • Steam: 76561198442747843

  • Telegram: i_Invoker

  • Карма: 1130


  • Наличие запрета:

  • Награды: 22 (Подробнее)
    Admin (Количество: 1) Авторитет (Количество: 1) Активный релизер 1 (Количество: 1) Активный релизер 2 (Количество: 1) Активный сидер 1 (Количество: 1)
  • Создавать темы 28-Фев-2019 01:03

    Бэтмен: Начало
    Batman Begins
    - Год выхода: 2005
    Жанр: боевик, приключения
    Страна: США, Великобритания
    Продолжительность: 02:20:03
    Перевод #1: Дублированный | Лицензия
    Перевод #2: Профессиональный многоголосый | Киномания
    Перевод #3: Профессиональный двухголосый | Тайкун
    Перевод #4: Профессиональный двухголосый | Супербит
    Перевод #5: Авторский | Гаврилов
    Перевод #6: Авторский | Королёв
    Перевод #7: Авторский | Живов
    Субтитры: Russian, English-Режиссер: Кристофер Нолан-В ролях: Кристиан Бэйл, Майкл Кейн, Лиам Нисон, Кэти Холмс, Гэри Олдман, Киллиан Мёрфи, Морган Фримен, Том Уилкинсон, Рутгер Хауэр, Кен Ватанабе, Марк Бун Джуниор-О фильме: История о происхождении легенды Брюса Уэйна, юного наследника огромного состояния, потерявшего своих родителей. Покинув родной Готэм, он отправляется в путешествие по миру. Многочисленные преграды и лишения закаляют его характер, а мудрый наставник помогает вновь обрести смысл жизни. Легендарный герой, защитник слабых и борец с несправедливостью преображается у тебя на глазах. Вернувшись в Готэм, Бэтмен становится единственной преградой на пути у сил зла, готовых ввергнуть город во мрак беззакония…- -Возраст: Рекомендовано зрителям, достигшим 16 лет
    Рейтинг MPAA: детям до 13 лет просмотр не желателен-Качество: BDRemux 1080p
    Формат: BDAV/m2ts
    Видео: VC-1, 1920x1080 at 23.976 fps, 13692 Kbps avg, Advanced Profile 3
    Аудио #1: RUS | DTS-HD MA, 6 ch, 4040 Kbps, 48kHz, avg - Дублированный | Loud_Swir
    Аудио #2: RUS | AC3, 6 ch, 640 Kbps, 48kHz, avg - Дублированный | Лицензия
    Аудио #3: RUS | AC3, 6 ch, 640 Kbps, 48kHz, avg - Профессиональный многоголосый| Киномания
    Аудио #4: RUS | DTS-HD MA, 6 ch, 2093 Kbps, 48kHz, avg - Профессиональный двухголосый | Тайкун
    Аудио #5: RUS | DTS-HD MA, 6 ch, 2097 Kbps, 48kHz, avg - Профессиональный двухголосый | Супербит
    Аудио #6: RUS | DTS-HD MA, 6 ch, 2093 Kbps, 48kHz, avg - Авторский | Гаврилов
    Аудио #7: RUS | DTS-HD MA, 6 ch, 2094 Kbps, 48kHz, avg - Авторский | Королёв
    Аудио #8: RUS | AC3, 6 ch, 640 Kbps, 48kHz, avg - Авторский | Живов
    Аудио #9: ENG | TrueHD, 6 ch, 1551 Kbps, 48kHz, avg | Оригинал
    Аудио #10: UKR | AC3, 6 ch, 1551 Kbps, 48kHz, avg | Профессиональный многоголосый Так Треба Продакшн
    -

    MediaInfo

    Общее
    Уникальный идентификатор                 : 240848704484109805582152412935189793031 (0xB531C5F0A67917A0885CEF0994A18907)
    Полное имя                               : D:\РЕМУКС!!!!!\Бэтмен. Начало.BDRemux.mkv
    Формат                                   : Matroska
    Версия формата                           : Version 4 / Version 2
    Размер файла                             : 30,9 Гбайт
    Продолжительность                        : 2 ч. 20 м.
    Режим общего битрейта                    : Переменный
    Общий поток                              : 31,6 Мбит/сек
    Название фильма                          : Бэтмен. Начало.BDRemux.thx:SPOMOPS
    Дата кодирования                         : UTC 2018-02-04 16:58:27
    Программа кодирования                    : mkvmerge v8.3.0 ('Over the Horizon') 64bit
    Библиотека кодирования                   : libebml v1.3.1 + libmatroska v1.4.2
    Видео
    Идентификатор                            : 1
    Формат                                   : VC-1
    Профиль формата                          : Advanced@L3
    Идентификатор кодека                     : V_MS/VFW/FOURCC / WVC1
    Идентификатор кодека/Подсказка           : Microsoft
    Продолжительность                        : 2 ч. 20 м.
    Битрейт                                  : 13,7 Мбит/сек
    Ширина                                   : 1920 пикселей
    Высота                                   : 1080 пикселей
    Соотношение сторон                       : 16:9
    Режим частоты кадров                     : Постоянный
    Частота кадров                           : 23,976 (24000/1001) кадра/сек
    Цветовое пространство                    : YUV
    Субдискретизация насыщенности            : 4:2:0
    Битовая глубина                          : 8 бит
    Тип развёртки                            : Прогрессивная
    Метод сжатия                             : С потерями
    Бит/(Пиксели*Кадры)                      : 0.275
    Размер потока                            : 13,4 Гбайт (43%)
    Заголовок                                : VC-1, 1920x1080p, 23.976 fps, 13692 kbps
    Язык                                     : English
    Default                                  : Да
    Forced                                   : Нет
    Аудио #1
    Идентификатор                            : 2
    Формат                                   : DTS
    Формат/Информация                        : Digital Theater Systems
    Профиль формата                          : MA / Core
    Идентификатор кодека                     : A_DTS
    Продолжительность                        : 2 ч. 20 м.
    Вид битрейта                             : Переменный / Постоянный
    Битрейт                                  : 4040 Кбит/сек / 1509 Кбит/сек
    Каналы                                   : 6 каналов
    Расположение каналов                     : Front: L C R, Side: L R, LFE
    Частота                                  : 48,0 КГц
    Частота кадров                           : 93,750 кадра/сек (512 SPF)
    Битовая глубина                          : 24 бит
    Метод сжатия                             : Без потерь / Lossy
    Размер потока                            : 3,95 Гбайт (13%)
    Заголовок                                : Русский  DTS-HD MA  - Дубляж
    Язык                                     : Russian
    Default                                  : Да
    Forced                                   : Нет
    Аудио #2
    Идентификатор                            : 3
    Формат                                   : AC-3
    Формат/Информация                        : Audio Coding 3
    Идентификатор кодека                     : A_AC3
    Продолжительность                        : 2 ч. 20 м.
    Вид битрейта                             : Постоянный
    Битрейт                                  : 640 Кбит/сек
    Каналы                                   : 6 каналов
    Расположение каналов                     : Front: L C R, Side: L R, LFE
    Частота                                  : 48,0 КГц
    Частота кадров                           : 31,250 кадров/сек (1536 SPF)
    Битовая глубина                          : 16 бит
    Метод сжатия                             : С потерями
    Задержка видео                           : 42 мс.
    Размер потока                            : 641 Мбайт (2%)
    Заголовок                                : Русский ас3 - Дубляж
    Язык                                     : Russian
    ServiceKind/String                       : Complete Main
    Default                                  : Нет
    Forced                                   : Нет
    Аудио #3
    Идентификатор                            : 4
    Формат                                   : DTS
    Формат/Информация                        : Digital Theater Systems
    Профиль формата                          : MA / Core
    Идентификатор кодека                     : A_DTS
    Продолжительность                        : 2 ч. 20 м.
    Вид битрейта                             : Переменный / Постоянный
    Битрейт                                  : 2099 Кбит/сек / 1509 Кбит/сек
    Каналы                                   : 6 каналов
    Расположение каналов                     : Front: L C R, Side: L R, LFE
    Частота                                  : 48,0 КГц
    Частота кадров                           : 93,750 кадра/сек (512 SPF)
    Битовая глубина                          : 16 бит
    Метод сжатия                             : Без потерь / Lossy
    Задержка видео                           : 42 мс.
    Размер потока                            : 2,05 Гбайт (7%)
    Заголовок                                : Русский  DTS-HD MA  - ПМ (Киномания)
    Язык                                     : Russian
    Default                                  : Нет
    Forced                                   : Нет
    Аудио #4
    Идентификатор                            : 5
    Формат                                   : DTS
    Формат/Информация                        : Digital Theater Systems
    Профиль формата                          : MA / Core
    Идентификатор кодека                     : A_DTS
    Продолжительность                        : 2 ч. 20 м.
    Вид битрейта                             : Переменный / Постоянный
    Битрейт                                  : 2093 Кбит/сек / 1509 Кбит/сек
    Каналы                                   : 6 каналов
    Расположение каналов                     : Front: L C R, Side: L R, LFE
    Частота                                  : 48,0 КГц
    Частота кадров                           : 93,750 кадра/сек (512 SPF)
    Битовая глубина                          : 16 бит
    Метод сжатия                             : Без потерь / Lossy
    Задержка видео                           : 42 мс.
    Размер потока                            : 2,05 Гбайт (7%)
    Заголовок                                : Русский  DTS-HD MA  - ПД  (Тайкун)
    Язык                                     : Russian
    Default                                  : Нет
    Forced                                   : Нет
    Аудио #5
    Идентификатор                            : 6
    Формат                                   : DTS
    Формат/Информация                        : Digital Theater Systems
    Профиль формата                          : MA / Core
    Идентификатор кодека                     : A_DTS
    Продолжительность                        : 2 ч. 20 м.
    Вид битрейта                             : Переменный / Постоянный
    Битрейт                                  : 2097 Кбит/сек / 1509 Кбит/сек
    Каналы                                   : 6 каналов
    Расположение каналов                     : Front: L C R, Side: L R, LFE
    Частота                                  : 48,0 КГц
    Частота кадров                           : 93,750 кадра/сек (512 SPF)
    Битовая глубина                          : 16 бит
    Метод сжатия                             : Без потерь / Lossy
    Размер потока                            : 2,05 Гбайт (7%)
    Заголовок                                : Русский  DTS-HD MA  - ПД  (Супербит)
    Язык                                     : Russian
    Default                                  : Нет
    Forced                                   : Нет
    Аудио #6
    Идентификатор                            : 7
    Формат                                   : DTS
    Формат/Информация                        : Digital Theater Systems
    Профиль формата                          : MA / Core
    Идентификатор кодека                     : A_DTS
    Продолжительность                        : 2 ч. 20 м.
    Вид битрейта                             : Переменный / Постоянный
    Битрейт                                  : 2093 Кбит/сек / 1509 Кбит/сек
    Каналы                                   : 6 каналов
    Расположение каналов                     : Front: L C R, Side: L R, LFE
    Частота                                  : 48,0 КГц
    Частота кадров                           : 93,750 кадра/сек (512 SPF)
    Битовая глубина                          : 16 бит
    Метод сжатия                             : Без потерь / Lossy
    Задержка видео                           : 42 мс.
    Размер потока                            : 2,05 Гбайт (7%)
    Заголовок                                : Русский  DTS-HD MA  - АП (Гаврилов)
    Язык                                     : Russian
    Default                                  : Нет
    Forced                                   : Нет
    Аудио #7
    Идентификатор                            : 8
    Формат                                   : DTS
    Формат/Информация                        : Digital Theater Systems
    Профиль формата                          : MA / Core
    Идентификатор кодека                     : A_DTS
    Продолжительность                        : 2 ч. 20 м.
    Вид битрейта                             : Переменный / Постоянный
    Битрейт                                  : 2094 Кбит/сек / 1509 Кбит/сек
    Каналы                                   : 6 каналов
    Расположение каналов                     : Front: L C R, Side: L R, LFE
    Частота                                  : 48,0 КГц
    Частота кадров                           : 93,750 кадра/сек (512 SPF)
    Битовая глубина                          : 16 бит
    Метод сжатия                             : Без потерь / Lossy
    Задержка видео                           : 42 мс.
    Размер потока                            : 2,05 Гбайт (7%)
    Заголовок                                : Русский  DTS-HD MA  - АП (Королёв)
    Язык                                     : Russian
    Default                                  : Нет
    Forced                                   : Нет
    Аудио #8
    Идентификатор                            : 9
    Формат                                   : AC-3
    Формат/Информация                        : Audio Coding 3
    Идентификатор кодека                     : A_AC3
    Продолжительность                        : 2 ч. 20 м.
    Вид битрейта                             : Постоянный
    Битрейт                                  : 640 Кбит/сек
    Каналы                                   : 6 каналов
    Расположение каналов                     : Front: L C R, Side: L R, LFE
    Частота                                  : 48,0 КГц
    Частота кадров                           : 31,250 кадров/сек (1536 SPF)
    Битовая глубина                          : 16 бит
    Метод сжатия                             : С потерями
    Размер потока                            : 641 Мбайт (2%)
    Заголовок                                : Русский ас3 - АП (Живов)
    Язык                                     : Russian
    ServiceKind/String                       : Complete Main
    Default                                  : Нет
    Forced                                   : Нет
    Аудио #9
    Идентификатор                            : 10
    Формат                                   : TrueHD
    Идентификатор кодека                     : A_TRUEHD
    Продолжительность                        : 2 ч. 20 м.
    Вид битрейта                             : Переменный
    Битрейт                                  : 1551 Кбит/сек
    Максимальный битрейт                     : 3267 Кбит/сек
    Каналы                                   : 6 каналов
    Расположение каналов                     : Front: L C R, Side: L R, LFE
    Частота                                  : 48,0 КГц
    Частота кадров                           : 1200,000 кадров/сек (40 SPF)
    Метод сжатия                             : Без потерь
    Задержка видео                           : 167 мс.
    Размер потока                            : 1,52 Гбайт (5%)
    Заголовок                                : Английский Dolby TrueHD - Оригинал
    Язык                                     : English
    Default                                  : Нет
    Forced                                   : Нет
    Аудио #10
    Идентификатор                            : 11
    Формат                                   : AC-3
    Формат/Информация                        : Audio Coding 3
    Идентификатор кодека                     : A_AC3
    Продолжительность                        : 2 ч. 20 м.
    Вид битрейта                             : Постоянный
    Битрейт                                  : 448 Кбит/сек
    Каналы                                   : 6 каналов
    Расположение каналов                     : Front: L C R, Side: L R, LFE
    Частота                                  : 48,0 КГц
    Частота кадров                           : 31,250 кадров/сек (1536 SPF)
    Битовая глубина                          : 16 бит
    Метод сжатия                             : С потерями
    Размер потока                            : 449 Мбайт (1%)
    Заголовок                                : Украинский ас3 - ПМ (Так Треба Продакшн)
    Язык                                     : Ukrainian
    ServiceKind/String                       : Complete Main
    Default                                  : Нет
    Forced                                   : Нет
    Текст #1
    Идентификатор                            : 12
    Формат                                   : UTF-8
    Идентификатор кодека                     : S_TEXT/UTF8
    Идентификатор кодека/Информация          : UTF-8 Plain Text
    Продолжительность                        : 2 ч. 19 м.
    Битрейт                                  : 69 бит/сек
    ElementCount                             : 1397
    Размер потока                            : 71,3 Кбайт (0%)
    Заголовок                                : Русские
    Язык                                     : Russian
    Default                                  : Нет
    Forced                                   : Нет
    Текст #2
    Идентификатор                            : 13
    Формат                                   : UTF-8
    Идентификатор кодека                     : S_TEXT/UTF8
    Идентификатор кодека/Информация          : UTF-8 Plain Text
    Продолжительность                        : 2 ч. 9 м.
    Битрейт                                  : 51 бит/сек
    ElementCount                             : 1393
    Размер потока                            : 49,3 Кбайт (0%)
    Заголовок                                : Английские
    Язык                                     : English
    Default                                  : Нет
    Forced                                   : Нет
    Текст #3
    Идентификатор                            : 14
    Формат                                   : UTF-8
    Идентификатор кодека                     : S_TEXT/UTF8
    Идентификатор кодека/Информация          : UTF-8 Plain Text
    Продолжительность                        : 2 ч. 9 м.
    Битрейт                                  : 54 бит/сек
    ElementCount                             : 1472
    Размер потока                            : 52,2 Кбайт (0%)
    Заголовок                                : Английские - SDH
    Язык                                     : English
    Default                                  : Нет
    Forced                                   : Нет
    Меню
    00:00:00.000                             : :Chapter 01
    00:03:39.219                             : :Chapter 03
    00:07:31.117                             : :Chapter 06
    00:11:34.026                             : :Chapter 08
    00:16:15.641                             : :Chapter 11
    00:19:44.349                             : :Chapter 13
    00:24:19.291                             : :Chapter 15
    00:28:24.703                             : :Chapter 17
    00:31:25.383                             : :Chapter 19
    00:35:53.818                             : :Chapter 22
    00:38:24.635                             : :Chapter 24
    00:41:14.638                             : :Chapter 25
    00:43:08.252                             : :Chapter 27
    00:46:57.981                             : :Chapter 29
    00:49:43.981                             : :Chapter 31
    00:53:26.203                             : :Chapter 34
    00:55:55.018                             : :Chapter 37
    00:58:02.145                             : :Chapter 39
    01:03:31.808                             : :Chapter 41
    01:05:53.115                             : :Chapter 43
    01:08:38.781                             : :Chapter 45
    01:11:25.781                             : :Chapter 46
    01:13:19.561                             : :Chapter 48
    01:16:16.238                             : :Chapter 50
    01:19:50.285                             : :Chapter 52
    01:23:54.362                             : :Chapter 54
    01:29:02.670                             : :Chapter 56
    01:32:36.717                             : :Chapter 58
    01:37:49.029                             : :Chapter 60
    01:40:33.694                             : :Chapter 62
    01:45:08.969                             : :Chapter 64
    01:49:32.065                             : :Chapter 66
    01:51:29.182                             : :Chapter 67
    01:54:49.048                             : :Chapter 69
    01:58:11.084                             : :Chapter 71
    02:01:54.974                             : :Chapter 73
    02:05:01.160                             : :Chapter 74
    02:06:06.892                             : :Chapter 76
    02:09:18.417                             : :Chapter 77
    02:10:57.015                             : :Chapter 79
    02:20:02.769                             : :Chapter 80
    --

    _________________


    Последний раз редактировалось: -InVoKeR- (2020-01-30 22:40), всего редактировалось 1 раз
    • xonbek
    • Не в сети
    • 5059
    • Пол: Мужской

    • Стаж: 1 год 5 месяцев

    • Сообщений: 1

    • Не указан Не указан

    • Провайдер: UzOnline UzOnline

    • Карма: 778


    • Наличие запрета:

    • Награды: Нет
  • Создавать темы 08-Мар-2019 08:37 (спустя 8 дней)

    по меньше размерчиком нету?

      -746

    • Сообщений: 249

    • Откуда: Космический Станция

    • Откуда: Космический Станция

    • Провайдер: Не указан Не указан

    • Карма: 32700


    • Наличие запрета:

    • Награды: Нет
  • Создавать темы 03-Янв-2020 23:49 (спустя 9 месяцев 26 дней)

    Топик был перенесен из форума HD в форум Blu-Ray & BDRemux


    -InVoKeR-
    Показать сообщения:    
    Главная  Кинофильмы  Зарубежные кинофильмы  Blu-Ray & BDRemux

    Текущее время: 04-Июн 00:27

    Часовой пояс: UTC + 5



    Вы не можете начинать темы
    Вы не можете отвечать на сообщения
    Вы не можете редактировать свои сообщения
    Вы не можете удалять свои сообщения
    Вы не можете голосовать в опросах
    Вы не можете прикреплять файлы к сообщениям
    Вы не можете скачивать файлы