Мастера Меча Онлайн: Алисизация / Sword Art Online: Alicization (Манабу Оно) [TV] [1-24+1 из >24+1] [Полухардсаб] [RUS(int), JAP+SUB] [2018, Приключения, фантастика, романтика, драма, WEB-DL] [1080p] :: UZTOR.PW Лучший трекер в зоне TAS-IX!
Регистрация ·
Имя: Пароль:  
· Забыли пароль?
Уважаемые гости сайта! Добро Пожаловать на наш торрент трекер,где Вы можете бесплатно скачать любой Софт,Фильмы,Музыку и многое другое! А так же постоянно ведется набор модераторов и релизеров. Зарегистрируйтесь сейчас, чтобы получить доступ ко всем функциям. После регистрации или входа на сайт вы сможете создавать темы, отвечать на сообщения и скачивать файлы.

Навигация по Торрент раздачам и Форум

До нового обновления Торрент-Трекер осталось

 Мастера Меча Онлайн: Алисизация / Sword Art Online: Alicization (Манабу Оно) [TV] [1-24+1 из >24+1] [Полухардсаб] [RUS(int), JAP+SUB] [2018, Приключения, фантастика, романтика, драма, WEB-DL] [1080p]

Главная  Аниме  Сериалы  Аниме Сериалы (HD)
Статистика раздачи
Нет
 
     
 
 
Автор Сообщение
  • -InVoKeR- ®
  • Не в сети
  • 5057
  • VIP пользователь

  • Пол: Мужской

  • Стаж: 11 месяцев 25 дней

  • Сообщений: 344

  • Откуда: uztor.pw

  • Провайдер: UzOnline UzOnline

  • Тарифный план: Unlim 4 (Мир: 4 Мбит/с, Tas-ix: 100Мбит/с)

  • Steam: 76561198442747843

  • Telegram: i_Invoker

  • Карма: 1128


  • Наличие запрета:

  • Награды: 22 (Подробнее)
    Admin (Количество: 1) Авторитет (Количество: 1) Активный релизер 1 (Количество: 1) Активный релизер 2 (Количество: 1) Активный сидер 1 (Количество: 1)
  • Создавать темы 25-Фев-2019 16:57

    -- Год выпуска: 2018
    Страна: Япония
    Жанр: Приключения, фантастика, романтика, драма
    Продолжительность: ТВ, 1 эп 47 мин и ?? эп. по 25 мин
    Выпуск: c 09.10.2011 по 15.04.2012-Перевод
      русские субтитры от Wakanim (распознанный хардсаб)
      русские субтитры от Wakanim Хардсаб (надписи)
      [Многоголосый дубляж от ТО Студийная Банда Wakanim | Внутри контейнера.
      Роли озвучивали: Влад Токарев, Анна Мосолова, Татьяна Борзова, Ирина Зиновкина, Ирина Евтягина, Полина Ртищева, Александр Скиданов, Александр Русаков, Иван Породнов.]
    -Режиссер: Манабу Оно
    Автор оригинала: Кавахара Рэки-Студия: -Описание
    Кирито просыпается в огромном фантастическом виртуальном мире. Потеряв память, он начинает искать подсказки и встречает молодого парня Юджио у подножия черного дерева. И хотя Юджио — персонаж из виртуального мира (NPC), у него есть способность чувствовать и выражать человеческие чувства. Пытаясь найти способ выйти из системы, Кирито вдруг вспоминает, как бежал с Юджио на эту же самую гору, где они находятся. Но как это вообще возможно? Это воспоминание не должно было и существовать. Кроме того, в этом воспоминании была молодая девушка с длинными светлыми волосами, имя которой — Алиса. Что бы ни случилось, это имя нельзя забыть.-Информационные ссылки: AniDB || World Art || MAL-Качество: WEB-DL 1080p
    Энкод: Wakanim
    Тип видео: Полухардсаб
    Формат: mkv
    Видео: x264 (8bit), 1920х1080, ~14.1 Mbps, 23.976 fps
    Аудио RUS: AAC, 48000Hz, 192 Kbps, 2ch
    Аудио JAP: AAC, 48000Hz, 128 Kbps, 2ch-

    Список эпизодов

    01. Underworld / Андерворлд
    02. The Demon Tree / Дьявольское древо
    03. The End Mountains / Краевой хребет
    04. Departure / В путь
    05. Ocean Turtle / Оушн Тёртл
    06. Проект «Алисизация» / Project Alicization
    07. Школа клинка / Swordcraft Academy
    08. Гордость мечника / Swordsman`s Pride
    09. Долг знати / Nobleman`s Responsibilities
    10. Кодекс Запретов / Taboo Index
    11. Центральный собор / Central Cathedral
    12. Мудрец из библиотеки / The Sage of the Library

    Подробные тех. данные

    General
    Unique ID : 305434897531034814445391358959425268537 (0xE5C89F1C09E89E360FDE350D1FC9AB39)
    Complete name : E:\Anime\[Wakanim] Sword Art Online Alicization [1080]\Sword Art Online Alicization 03.mkv
    Format : Matroska
    Format version : Version 4 / Version 2
    File size : 2.18 GiB
    Duration : 23 min 37 s
    Overall bit rate : 13.2 Mb/s
    Encoded date : UTC 2018-10-20 20:50:55
    Writing application : mkvmerge v27.0.0 ('Metropolis') 64-bit
    Writing library : libebml v1.3.6 + libmatroska v1.4.9
    Video
    ID : 1
    Format : AVC
    Format/Info : Advanced Video Codec
    Format profile : High@L4.1
    Format settings : CABAC / 4 Ref Frames
    Format settings, CABAC : Yes
    Format settings, ReFrames : 4 frames
    Codec ID : V_MPEG4/ISO/AVC
    Duration : 23 min 37 s
    Bit rate : 12.9 Mb/s
    Width : 1 920 pixels
    Height : 1 080 pixels
    Display aspect ratio : 16:9
    Frame rate mode : Constant
    Frame rate : 23.976 (24000/1001) FPS
    Color space : YUV
    Chroma subsampling : 4:2:0
    Bit depth : 8 bits
    Scan type : Progressive
    Bits/(Pixel*Frame) : 0.259
    Stream size : 2.13 GiB (98%)
    Writing library : x264 core 155 r2901 7d0ff22
    Encoding settings : cabac=1 / ref=4 / deblock=1:1:1 / analyse=0x3:0x133 / me=umh / subme=10 / psy=1 / psy_rd=0.40:0.00 / mixed_ref=1 / me_range=24 / chroma_me=1 / trellis=2 / 8x8dct=1 / cqm=0 / deadzone=21,11 / fast_pskip=1 / chroma_qp_offset=-2 / threads=24 / lookahead_threads=6 / sliced_threads=0 / nr=0 / decimate=1 / interlaced=0 / bluray_compat=0 / constrained_intra=0 / bframes=10 / b_pyramid=2 / b_adapt=2 / b_bias=0 / direct=3 / weightb=1 / open_gop=0 / weightp=2 / keyint=250 / keyint_min=23 / scenecut=40 / intra_refresh=0 / rc_lookahead=60 / rc=crf / mbtree=1 / crf=12.0 / qcomp=0.60 / qpmin=0 / qpmax=69 / qpstep=4 / ip_ratio=1.40 / aq=1:0.60
    Language : Japanese
    Default : Yes
    Forced : No
    Audio #1
    ID : 2
    Format : AAC
    Format/Info : Advanced Audio Codec
    Format profile : LC
    Codec ID : A_AAC-2
    Duration : 23 min 37 s
    Bit rate : 192 kb/s
    Channel(s) : 2 channels
    Channel positions : Front: L R
    Sampling rate : 48.0 kHz
    Frame rate : 46.875 FPS (1024 SPF)
    Compression mode : Lossy
    Stream size : 32.4 MiB (1%)
    Language : Russian
    Default : Yes
    Forced : No
    Audio #2
    ID : 3
    Format : AAC
    Format/Info : Advanced Audio Codec
    Format profile : LC
    Codec ID : A_AAC-2
    Duration : 23 min 37 s
    Bit rate : 128 kb/s
    Channel(s) : 2 channels
    Channel positions : Front: L R
    Sampling rate : 48.0 kHz
    Frame rate : 46.875 FPS (1024 SPF)
    Compression mode : Lossy
    Stream size : 21.6 MiB (1%)
    Language : Japanese
    Default : No
    Forced : No

    Скриншоты


    _________________
    Показать сообщения:    
    Главная  Аниме  Сериалы  Аниме Сериалы (HD)

    Текущее время: 12-Ноя 18:04

    Часовой пояс: UTC + 5



    Вы не можете начинать темы
    Вы не можете отвечать на сообщения
    Вы не можете редактировать свои сообщения
    Вы не можете удалять свои сообщения
    Вы не можете голосовать в опросах
    Вы не можете прикреплять файлы к сообщениям
    Вы не можете скачивать файлы