Уважаемые гости сайта! Добро Пожаловать на наш торрент трекер,где Вы можете бесплатно скачать любой Софт,Фильмы,Музыку и многое другое! А так же постоянно ведется набор модераторов и релизеров. Зарегистрируйтесь сейчас, чтобы получить доступ ко всем функциям. После регистрации или входа на сайт вы сможете создавать темы, отвечать на сообщения и скачивать файлы.

Робин Гуд: Начало / Robin Hood (Отто Батхёрст) [2018, Боевик, приключения, UltraHD 4K | HDR | HEVC | BDRemux 2160p] Sub (ENG)

Ответить на тему
Статистика раздачи
Нет
 
     
 
 
Автор Сообщение

-InVoKeR- ®

Не в сети

5057

Пол: Мужской

Стаж: 7 месяцев 9 дней

Сообщений: 234

Откуда: uztor.pw

Карма: 1103

[+]

Провайдер: UzOnline UzOnline

Наличие запрета:




Награды: 20 (Подробнее)
Admin (Количество: 1) Авторитет (Количество: 1) Активный релизер 1 (Количество: 1)


[Профиль] ЛС

Создавать темы 22-Фев-2019 20:03

Цитировать

Робин Гуд: Начало
Robin Hood
- Год выхода: 2018
Жанр: боевик, триллер, приключения
Страна: США
Продолжительность: 01:56:08
Перевод:
    Дублированный | iTunes
    Любительский (многоголосый, закадровый) | HDRezka Studio
Субтитры: Английские-Режиссер: Отто Батхёрст / Otto Bathurst-В ролях: Тэрон Эджертон, Джейми Фокс, Бен Мендельсон, Ив Хьюсон, Джейми Дорнан, Тим Минчин, Пол Андерсон, Ф. Мюррэй Абрахам, Йен Пек, Корнелиус Бут-О фильме: Ветеран Крестовых походов Робин из Локсли и его командир-мавр по возвращении в Англию видят, что родная страна погрязла в коррупции. Вместе они решают изменить положение дел и запускают маховики массовой революции, в центре которой окажется загадочный разбойник.-Возраст: Рекомендовано зрителям, достигшим 16 лет
Рейтинг MPAA: детям до 13 лет просмотр не желателен-Качество: 4K UHD BDRemux 2160p
Формат: MKV
Видео: MPEG-H HEVC Video / 69800 kbps / 3840x2160p / 23.976 fps / 4:2:0 / 10 bits / HDR10 /
Аудио #1: RUS | AC3, 6 ch, 384 Kbps - Дублированный | iTunes
Аудио #2: RUS | AC3, 2 ch, 192 Kbps - Любительский | HDRezka Studio
Аудио #3: ENG | AC3, 6 ch, 640 Kbps | Оригинал
Аудио #4: ENG | TrueHD, 8 ch, 3786 Kbps | Оригинал
--

MI

General
Unique ID : 7603474882291358324348085011786219445 (0x5B860414169536610B4F53C5877BFB5)
Complete name : D:Video111Robin.Hood.2018.BDREMUX.2160p.HDR.HEVC.seleZen.mkv
Format : Matroska
Format version : Version 4
File size : 60.7 GiB
Duration : 1 h 56 min
Overall bit rate mode : Variable
Overall bit rate : 74.8 Mb/s
Movie name : Robin Hood 2018 from селезень
Encoded date : UTC 2019-02-21 21:08:59
Writing application : mkvmerge v31.0.0 ('Dolores In A Shoestand') 64-bit
Writing library : libebml v1.3.6 + libmatroska v1.4.9
Video
ID : 1
Format : HEVC
Format/Info : High Efficiency Video Coding
Commercial name : HDR10
Format profile : Main 10@L5.1@High
Codec ID : V_MPEGH/ISO/HEVC
Duration : 1 h 56 min
Bit rate : 69.8 Mb/s
Width : 3 840 pixels
Height : 2 160 pixels
Display aspect ratio : 16:9
Frame rate mode : Constant
Frame rate : 23.976 (24000/1001) FPS
Color space : YUV
Chroma subsampling : 4:2:0 (Type 2)
Bit depth : 10 bits
Bits/(Pixel*Frame) : 0.351
Stream size : 56.6 GiB (93%)
Language : English
Default : Yes
Forced : No
Color range : Limited
Color primaries : BT.2020
Transfer characteristics : PQ
Matrix coefficients : BT.2020 non-constant
Mastering display color pri : Display P3
Mastering display luminance : min: 0.0050 cd/m2, max: 4000 cd/m2
Maximum Content Light Level : 2980 cd/m2
Maximum Frame-Average Light : 791 cd/m2
Audio #1
ID : 2
Format : AC-3
Format/Info : Audio Coding 3
Commercial name : Dolby Digital
Codec ID : A_AC3
Duration : 1 h 56 min
Bit rate mode : Constant
Bit rate : 384 kb/s
Channel(s) : 6 channels
Channel layout : L R C LFE Ls Rs
Sampling rate : 48.0 kHz
Frame rate : 31.250 FPS (1536 SPF)
Bit depth : 16 bits
Compression mode : Lossy
Stream size : 319 MiB (1%)
Title : iTunes
Language : Russian
Service kind : Complete Main
Default : Yes
Forced : Yes
Audio #2
ID : 3
Format : AC-3
Format/Info : Audio Coding 3
Commercial name : Dolby Digital
Codec ID : A_AC3
Duration : 1 h 56 min
Bit rate mode : Constant
Bit rate : 192 kb/s
Channel(s) : 2 channels
Channel layout : L R
Sampling rate : 48.0 kHz
Frame rate : 31.250 FPS (1536 SPF)
Bit depth : 16 bits
Compression mode : Lossy
Stream size : 159 MiB (0%)
Title : MVO [HDRezka Studio]
Language : Russian
Service kind : Complete Main
Default : No
Forced : No
Audio #3
ID : 4
Format : MLP FBA 16-ch
Format/Info : Meridian Lossless Packing FBA with 16-channel presentation
Commercial name : Dolby TrueHD with Dolby Atmos
Codec ID : A_TRUEHD
Duration : 1 h 56 min
Bit rate mode : Variable
Bit rate : 3 786 kb/s
Maximum bit rate : 6 249 kb/s
Channel(s) : 8 channels
Channel layout : L R C LFE Ls Rs Lb Rb
Sampling rate : 48.0 kHz
Frame rate : 1 200.000 FPS (40 SPF)
Compression mode : Lossless
Stream size : 3.07 GiB (5%)
Title : Original
Language : English
Default : No
Forced : No
Number of dynamic objects : 15
Bed channel count : 1 channel
Bed channel configuration : LFE
Audio #4
ID : 5
Format : AC-3
Format/Info : Audio Coding 3
Commercial name : Dolby Digital
Codec ID : A_AC3
Duration : 1 h 56 min
Bit rate mode : Constant
Bit rate : 640 kb/s
Channel(s) : 6 channels
Channel layout : L R C LFE Ls Rs
Sampling rate : 48.0 kHz
Frame rate : 31.250 FPS (1536 SPF)
Bit depth : 16 bits
Compression mode : Lossy
Stream size : 532 MiB (1%)
Language : English
Service kind : Complete Main
Default : No
Forced : No
Text
ID : 6
Format : UTF-8
Codec ID : S_TEXT/UTF8
Codec ID/Info : UTF-8 Plain Text
Duration : 1 h 44 min
Bit rate : 48 b/s
Count of elements : 1360
Stream size : 36.9 KiB (0%)
Title : SDH
Language : English
Default : No
Forced : No
Menu
00:00:00.000 : :Chapter 01
00:05:40.340 : :Chapter 02
00:12:22.992 : :Chapter 03
00:18:31.986 : :Chapter 04
00:24:03.150 : :Chapter 05
00:30:43.341 : :Chapter 06
00:37:25.452 : :Chapter 07
00:43:39.033 : :Chapter 08
00:50:00.122 : :Chapter 09
00:57:47.297 : :Chapter 10
01:05:26.131 : :Chapter 11
01:10:55.001 : :Chapter 12
01:18:44.136 : :Chapter 13
01:24:20.013 : :Chapter 14
01:31:18.306 : :Chapter 15
01:44:48.866 : :Chapter 16


Последний раз редактировалось: -InVoKeR- (2019-02-26 16:04), всего редактировалось 1 раз

GameMaster

Не в сети

5056

Пол: Мужской

Стаж: 1 год 6 месяцев

Сообщений: 107

Откуда: Ташкент,Узбекистан

Карма: 838

[+]

Провайдер: TURON-Telecom 

Тарифный план: Скорость 10 (145000 сум, 0 Мб, 10M / 10M, 100M / 100M)

Telegram: UZTORPWuz

Наличие запрета:




Награды: 9 (Подробнее)
Admin (Количество: 1) Soft (Количество: 1) Speedy (Количество: 1)


[Профиль] ЛС

Создавать темы 22-Фев-2019 20:22 (спустя 19 минут)

Цитировать

11

_________________

-746

Создавать темы 16-Мар-2019 22:26 (спустя 22 дня)

Топик был перенесен из форума HD в форум UHD Blu-Ray & BDRemux
-InVoKeR-
Показать сообщения:    
Ответить на тему

Текущее время: 27-Июн 14:12

Часовой пояс: UTC + 5



Вы не можете начинать темы
Вы не можете отвечать на сообщения
Вы не можете редактировать свои сообщения
Вы не можете удалять свои сообщения
Вы не можете голосовать в опросах
Вы не можете прикреплять файлы к сообщениям
Вы не можете скачивать файлы