Уважаемые гости сайта! Добро Пожаловать на наш торрент трекер,где Вы можете бесплатно скачать любой Софт,Фильмы,Музыку и многое другое! А так же постоянно ведется набор модераторов и релизеров. Зарегистрируйтесь сейчас, чтобы получить доступ ко всем функциям. После регистрации или входа на сайт вы сможете создавать темы, отвечать на сообщения и скачивать файлы.

Астрал: Новое измерение / Astral (Крис Мул / Chris Mul) [2018, ужасы, фантастика, триллер, драма, WEB-DL 1080p] iTunes

Ответить на тему
Статистика раздачи
Скачал: [ 3 ]
 
     
 
 
Автор Сообщение

-InVoKeR- ®

Не в сети

5057

Пол: Мужской

Стаж: 7 месяцев 9 дней

Сообщений: 234

Откуда: uztor.pw

Карма: 1103

[+]

Провайдер: UzOnline UzOnline

Наличие запрета:




Награды: 20 (Подробнее)
Admin (Количество: 1) Авторитет (Количество: 1) Активный релизер 1 (Количество: 1)


[Профиль] ЛС

Создавать темы 22-Фев-2019 18:12

Цитировать

Астрал: Новое измерение/ Astral
«Загляни за границы этого мира»
- Год выхода: 2018
Жанр: ужасы, фантастика, триллер, драма
Страна: Великобритания
Продолжительность: 01:20:04
Перевод: Дублированное | iTunes
Субтитры: Отсутствует-Режиссер: Крис Мул / Chris Mul-В ролях: Фрэнк Диллэйн, Катрин Стэдмен, Ванесса Грасс, Демсон Идрис, Тревор Уайт, Дарвин Шоу, Нед Портеус, Марк Аикен, Джульетт Хоуланд, Дженнифер Брук, Дауд Шах-О фильме: Студент практикует астральные проекции, в попытке встретиться со своей погибшей матерью. После чего он сталкивается с ужасными последствиями, темная фигура теперь преследует его и его близких.-Возраст: Рекомендовано зрителям, достигшим 16 лет
Рейтинг MPAA: детям до 13 лет просмотр не желателен-Качество: WEB-DL 1080p (Нет рекламы)
Формат: AVI
Видео: Xvid, 2056 kb/s, 720x304
Аудио: RUS | AC3, 6 ch, 384 Kbps - Дублированное | iTunes
--

MI

General
Unique ID : 234977317069408529670688202265923401534 (0xB0C6FC30CBE45A75A20AD8600A53B73E)
Complete name : Astral.2018.WEB-DL1080.mkv
Format : Matroska
Format version : Version 2
File size : 2.79 GiB
Duration : 1 h 20 min
Overall bit rate : 4 975 kb/s
Movie name : ELEKTRI4KA.UNIONGANG
Encoded date : UTC 2019-02-22 09:36:15
Writing application : mkvmerge v7.8.0 ('River Man') 32bit built on Apr 3 2015 12:11:22
Writing library : libebml v1.3.1 + libmatroska v1.4.2
Video
ID : 2
Format : AVC
Format/Info : Advanced Video Codec
Format profile : High@L4
Format settings : CABAC / 5 Ref Frames
Format settings, CABAC : Yes
Format settings, ReFrames : 5 frames
Codec ID : V_MPEG4/ISO/AVC
Duration : 1 h 20 min
Bit rate : 4 492 kb/s
Width : 1 920 pixels
Height : 804 pixels
Display aspect ratio : 2.40:1
Frame rate mode : Constant
Frame rate : 25.000 FPS
Color space : YUV
Chroma subsampling : 4:2:0
Bit depth : 8 bits
Scan type : Progressive
Bits/(Pixel*Frame) : 0.116
Stream size : 2.52 GiB (90%)
Title : ELEKTRI4KA.UNIONGANG
Language : English
Default : Yes
Forced : No
Color range : Limited
Color primaries : BT.709
Transfer characteristics : BT.709
Matrix coefficients : BT.709
Audio
ID : 1
Format : AC-3
Format/Info : Audio Coding 3
Codec ID : A_AC3
Duration : 1 h 20 min
Bit rate mode : Constant
Bit rate : 384 kb/s
Channel(s) : 6 channels
Channel positions : Front: L C R, Side: L R, LFE
Sampling rate : 48.0 kHz
Frame rate : 31.250 FPS (1536 SPF)
Bit depth : 16 bits
Compression mode : Lossy
Stream size : 220 MiB (8%)
Language : Russian
Service kind : Complete Main
Default : Yes
Forced : No
Показать сообщения:    
Ответить на тему

Текущее время: 27-Июн 14:10

Часовой пояс: UTC + 5



Вы не можете начинать темы
Вы не можете отвечать на сообщения
Вы не можете редактировать свои сообщения
Вы не можете удалять свои сообщения
Вы не можете голосовать в опросах
Вы не можете прикреплять файлы к сообщениям
Вы не можете скачивать файлы