Уважаемые гости сайта! Добро Пожаловать на наш торрент трекер,где Вы можете бесплатно скачать любой Софт,Фильмы,Музыку и многое другое! А так же постоянно ведется набор модераторов и релизеров. Зарегистрируйтесь сейчас, чтобы получить доступ ко всем функциям. После регистрации или входа на сайт вы сможете создавать темы, отвечать на сообщения и скачивать файлы.

Навигация по Торрент раздачам и Форум и Стол заказов и Группы

 Крестная мама / La Daronne (Жан-Поль Саломе / Jean-Paul Salomé) [2020, Драма, комедия, криминал, BDRip] DUB (iTunes)

Главная  Кинофильмы  Зарубежные кинофильмы
Статистика раздачи
Нет
Сегодня идет свободное скачивание без начисления Download
 
     
 
 
 
Автор Сообщение
  • kisel ®
  • Не в сети

    Автор темы

  • 7467
  • Пол: Мужской

  • Стаж: 27 дней

  • Сообщений: 26

  • Провайдер: UzOnline UzOnline

  • Карма: 0


  • Нет нарушения:

  • Награды: Нет
  • Создавать темы 11-Янв-2021 00:55

    Информация о фильме
    Название: Крестная мама
    Оригинальное название: La Daronne
    Год выхода: 2020
    Жанр: Драма, комедия, криминал
    Режиссер: Жан-Поль Саломе
    В ролях: Изабель Юппер, Ипполит Жирардо, Фарида Ушани, Лилиан Ровер, Ирис Бри, Надя Нгуйен, Ребекка Мардер, Рашид Гуэллаз, Мурад Будауд, Юссеф Сарауи
    О фильме:
    Талантливая переводчица работает в полиции, помогая раскрывать преступления. Однажды ей становится известно о крупной партии наркотиков. Соблазн изменить жизнь слишком велик. И вот она превращается в НаркоМаму, которая строит свою империю. Теперь вся полиция охотится за ней.


    Страна: Франция
    Студия: Canal+ [fr], Centre National de la Cinématographie (CNC), Le Pacte, Région Ile-de-France
    Продолжительность: 01:45:14
    Перевод: Профессиональный (полное дублирование) | iTunes
    Файл
    Качество: BDRip-AVC
    Формат: MKV
    Кодек: MPEG-4 AVC
    Видео: 1024x428 (2.40:1), 23.976 fps, MPEG-4 AVC ~ 2514 Kbps avg, 0.239 bit/pixel
    Аудио: AC3, 48 kHz, 6 ch, ~384.00 kbps avg | русский | iTunes
    Аудио: AC3, 48 kHz, 6 ch, ~448.00 kbps avg | французский |
    Субтитры: Английские (Full)

    MI

    General
    Unique ID : 124858441341121215730693159179170779548 (0x5DEEDC70F934EBE73E5C375183CE919C)
    Complete name : C:\TOR\La.Daronne.2020.BDRip.2.46Gb.x264.MegaPeer.mkv
    Format : Matroska
    Format version : Version 4
    File size : 2.46 GiB
    Duration : 1 h 45 min
    Overall bit rate : 3 344 kb/s
    Movie name : Крестная мама / La Daronne (2020) от MegaPeer
    Encoded date : UTC 2021-01-10 14:56:51
    Writing application : mkvmerge v47.0.0 ('Black Flag') 64-bit
    Writing library : libebml v1.3.10 + libmatroska v1.5.2
    Cover : Yes
    Attachments : cover.jpg
    Video
    ID : 1
    Format : AVC
    Format/Info : Advanced Video Codec
    Format profile : High@L4.1
    Format settings : CABAC / 12 Ref Frames
    Format settings, CABAC : Yes
    Format settings, Reference fra : 12 frames
    Codec ID : V_MPEG4/ISO/AVC
    Duration : 1 h 45 min
    Bit rate : 2 514 kb/s
    Width : 1 024 pixels
    Height : 428 pixels
    Display aspect ratio : 2.40:1
    Frame rate mode : Constant
    Frame rate : 23.976 FPS
    Color space : YUV
    Chroma subsampling : 4:2:0
    Bit depth : 8 bits
    Scan type : Progressive
    Bits/(Pixel*Frame) : 0.239
    Stream size : 1.80 GiB (73%)
    Title : stillet@MegaPeer
    Writing library : x264 core 161 r3018 db0d417
    Encoding settings : cabac=1 / ref=12 / deblock=1:-3:-3 / analyse=0x3:0x113 / me=umh / subme=11 / psy=1 / psy_rd=1.00:0.00 / mixed_ref=1 / me_range=48 / chroma_me=1 / trellis=2 / 8x8dct=1 / cqm=0 / deadzone=21,11 / fast_pskip=0 / chroma_qp_offset=-2 / threads=13 / lookahead_threads=3 / sliced_threads=0 / nr=0 / decimate=0 / interlaced=0 / bluray_compat=0 / constrained_intra=0 / bframes=11 / b_pyramid=2 / b_adapt=2 / b_bias=0 / direct=3 / weightb=1 / open_gop=0 / weightp=2 / keyint=250 / keyint_min=25 / scenecut=40 / intra_refresh=0 / rc_lookahead=40 / rc=2pass / mbtree=0 / bitrate=2514 / ratetol=1.0 / qcomp=0.60 / qpmin=0 / qpmax=69 / qpstep=4 / cplxblur=20.0 / qblur=0.5 / vbv_maxrate=50000 / vbv_bufsize=62500 / nal_hrd=none / filler=0 / ip_ratio=1.40 / pb_ratio=1.30 / aq=1:1.10
    Language : English
    Default : Yes
    Forced : No
    Audio #1
    ID : 2
    Format : AC-3
    Format/Info : Audio Coding 3
    Commercial name : Dolby Digital
    Codec ID : A_AC3
    Duration : 1 h 45 min
    Bit rate mode : Constant
    Bit rate : 384 kb/s
    Channel(s) : 6 channels
    Channel layout : L R C LFE Ls Rs
    Sampling rate : 48.0 kHz
    Frame rate : 31.250 FPS (1536 SPF)
    Compression mode : Lossy
    Stream size : 289 MiB (11%)
    Title : iTunes
    Language : Russian
    Service kind : Complete Main
    Default : Yes
    Forced : Yes
    Audio #2
    ID : 3
    Format : AC-3
    Format/Info : Audio Coding 3
    Commercial name : Dolby Digital
    Codec ID : A_AC3
    Duration : 1 h 45 min
    Bit rate mode : Constant
    Bit rate : 448 kb/s
    Channel(s) : 6 channels
    Channel layout : L R C LFE Ls Rs
    Sampling rate : 48.0 kHz
    Frame rate : 31.250 FPS (1536 SPF)
    Compression mode : Lossy
    Stream size : 337 MiB (13%)
    Language : French
    Service kind : Complete Main
    Default : No
    Forced : No
    Text
    ID : 4
    Format : UTF-8
    Codec ID : S_TEXT/UTF8
    Codec ID/Info : UTF-8 Plain Text
    Title : Full
    Language : English
    Default : No
    Forced : No
    Menu
    00:00:00.000 : fr:Глава 01
    00:07:51.346 : fr:Глава 02
    00:15:56.581 : fr:Глава 03
    00:23:09.054 : fr:Глава 04
    00:31:07.824 : fr:Глава 05
    00:39:49.971 : fr:Глава 06
    00:47:00.401 : fr:Глава 07
    00:55:30.911 : fr:Глава 08
    01:05:44.065 : fr:Глава 09
    01:14:08.444 : fr:Глава 10
    01:23:14.823 : fr:Глава 11
    01:31:47.377 : fr:Глава 12
    01:40:11.964 : fr:Глава 13

    Скриншоты

    Показать сообщения:    
    Главная  Кинофильмы  Зарубежные кинофильмы

    Текущее время: 27-Янв 20:44

    Часовой пояс: UTC + 5



    Вы не можете начинать темы
    Вы не можете отвечать на сообщения
    Вы не можете редактировать свои сообщения
    Вы не можете удалять свои сообщения
    Вы не можете голосовать в опросах
    Вы не можете прикреплять файлы к сообщениям
    Вы не можете скачивать файлы