Уважаемые гости сайта! Добро Пожаловать на наш торрент трекер,где Вы можете бесплатно скачать любой Софт,Фильмы,Музыку и многое другое! А так же постоянно ведется набор модераторов и релизеров. Зарегистрируйтесь сейчас, чтобы получить доступ ко всем функциям. После регистрации или входа на сайт вы сможете создавать темы, отвечать на сообщения и скачивать файлы.

Навигация по Торрент раздачам и Форум и Стол заказов и Группы

 Воображаемая реальность / Valley of the Gods (Лех Маевски / Lech Majewski) [2019, Польша, Люксембург, США, фантастика, триллер, драма, приключения, HDRip ] Dub (IVI)

Главная  Кинофильмы  Зарубежные кинофильмы
Статистика раздачи
Нет
 
     
 
 
 
Автор Сообщение
  • kisel ®
  • Не в сети

    Автор темы

  • 7467
  • Пол: Мужской

  • Стаж: 3 месяца 18 дней

  • Сообщений: 26

  • Провайдер: UzOnline UzOnline

  • Карма: 0


  • Нет нарушения:

  • Награды: Нет
  • Создавать темы 10-Янв-2021 18:12

    Информация о фильме
    Название: Воображаемая реальность
    Оригинальное название: Valley of the Gods
    Год выхода: 2019
    Жанр: Фантастика, триллер, драма, приключения
    Режиссер: Лех Маевски
    В ролях: Джош Хартнетт, Джон Малкович, Беренис Марло, Кир Дуллеа, Джон Рис-Дэвис, Джейми Рэй Ньюман, Джозеф Раннингфокс, Стивен Скайлер, Джон А. Лоренц, Марек Пробош, Лех Дыблик, Крис Д'Аннунцио, Доминик Ватин, Матеуш Девера, Шимон Будзык, Эва Идзиковская, Катажина Курылёньская, Рышард Херба, Кристиан Билко, Халина Кон, Роман Янишек, Дорота Лис, Катажина Носалик, Эва Майхерчык
    О фильме: Биограф Джон Экас, пишущий историю самого богатого человека на земле Веса Тауроса, обладает способностью менять реальность силой воображения. Он переплетает их судьбы с древней легендой индейцев Навахо, исследуя, как видения сверхъестественного сталкиваются с настоящими событиями жизни.

    Выпущено: Польша, Люксембург, США / Royal Road Entertainment, Angelus Silesius, Domino Film
    Продолжительность: 02:06:42
    Озвучивание: Дублированное | IVI
    Файл
    Формат: AVI
    Качество: HDRip
    Видео: XviD, 1260 Kb/s, 704x304
    Аудио: Russian: 48 kHz, AC3 Dolby Digital, 3/2 (L, C, R, l, r) + LFE ch, ~384 Kbps
    Субтитры: Нет

    MI

    General
    Complete name : C:\TOR\Voobrazhaemaya.realnost.2019.HDRip.ELEKTRI4KA.UNIONGANG.avi
    Format : AVI
    Format/Info : Audio Video Interleave
    File size : 1.46 GiB
    Duration : 2 h 6 min
    Overall bit rate : 1 653 kb/s
    Movie name : .ELEKTRI4KA.UNIONGANG.
    Writing application : VirtualDubMod 1.5.10.3 | www.virtualdub-fr.org || (build 2550/release)
    Writing library : VirtualDubMod build 2550/release
    Video
    ID : 0
    Format : MPEG-4 Visual
    Format profile : Advanced Simple@L5
    Format settings : BVOP1
    Format settings, BVOP : 1
    Format settings, QPel : No
    Format settings, GMC : No warppoints
    Format settings, Matrix : Default (MPEG)
    Codec ID : XVID
    Codec ID/Hint : XviD
    Duration : 2 h 6 min
    Bit rate : 1 195 kb/s
    Width : 720 pixels
    Height : 304 pixels
    Display aspect ratio : 2.35:1
    Frame rate : 24.000 FPS
    Color space : YUV
    Chroma subsampling : 4:2:0
    Bit depth : 8 bits
    Scan type : Progressive
    Compression mode : Lossy
    Bits/(Pixel*Frame) : 0.227
    Stream size : 1.06 GiB (72%)
    Writing library : XviD 69
    Audio
    ID : 1
    Format : AC-3
    Format/Info : Audio Coding 3
    Commercial name : Dolby Digital
    Codec ID : 2000
    Duration : 2 h 6 min
    Bit rate mode : Constant
    Bit rate : 384 kb/s
    Channel(s) : 6 channels
    Channel layout : L R C LFE Ls Rs
    Sampling rate : 48.0 kHz
    Frame rate : 31.250 FPS (1536 SPF)
    Compression mode : Lossy
    Stream size : 348 MiB (23%)
    Alignment : Split across interleaves
    Service kind : Complete Main

    Скриншоты

    Показать сообщения:    
    Главная  Кинофильмы  Зарубежные кинофильмы

    Текущее время: 19-Апр 05:52

    Часовой пояс: UTC + 5



    Вы не можете начинать темы
    Вы не можете отвечать на сообщения
    Вы не можете редактировать свои сообщения
    Вы не можете удалять свои сообщения
    Вы не можете голосовать в опросах
    Вы не можете прикреплять файлы к сообщениям
    Вы не можете скачивать файлы