Уважаемые гости сайта! Добро Пожаловать на наш торрент трекер,где Вы можете бесплатно скачать любой Софт,Фильмы,Музыку и многое другое! А так же постоянно ведется набор модераторов и релизеров. Зарегистрируйтесь сейчас, чтобы получить доступ ко всем функциям. После регистрации или входа на сайт вы сможете создавать темы, отвечать на сообщения и скачивать файлы.

Навигация по Торрент раздачам и Форум и Стол заказов и Группы

 Сделано в Италии / Made in Italy (Джеймс Д`Арси / James D'Arcy) [2020, Комедия, HDRip] DUB (iTunes)

Главная  Кинофильмы  Зарубежные кинофильмы
Статистика раздачи
Скачал: [ 1 ]
Сегодня идет свободное скачивание без начисления Download
 
     
 
 
 
Автор Сообщение
  • kisel ®
  • Не в сети

    Автор темы

  • 7467
  • Пол: Мужской

  • Стаж: 19 дней

  • Сообщений: 26

  • Провайдер: UzOnline UzOnline

  • Карма: 0


  • Нет нарушения:

  • Награды: Нет
  • Создавать темы 09-Янв-2021 18:13

    Информация о фильме
    Название: Сделано в Италии
    Оригинальное название: Made in Italy
    Год выхода: 2020
    Жанр: комедия
    Режиссер: Джеймс Д`Арси
    В ролях: Лиам Нисон, Валерия Билелло, Майкл Ричардсон, Линдси Дункан, Марко Квалья, Хелена Антонио, Иоланда Кеттл, Суад Фаресс, Лавиния Бьяджи
    О фильме: Известный лондонский художник Роберт приезжает в Тоскану вместе с сыном Джеком, чтобы продать старый дом, оставшийся ему после смерти жены. Роберт и Джек рассчитывают сделать небольшой ремонт и уехать, но в итоге остаются в Италии на несколько дней, что помогает им восстановить не только дом, но и давно порушенные отношения.

    Страна: Великобритания, Италия
    Студия: CrossDay Productions Ltd., Indiana Production, Rojovid Films
    Продолжительность: 01:33:44
    Озвучивание: Дублированный | iTunes
    Файл
    Формат: AVI
    Качество: HDRip
    Видео: XviD, 1838 Kbit/s, 704x384, 23.976 fps
    Аудио: 48 kHz, AC3 Dolby Digital, 3/2 (L, C, R, l, r) + LFE ch, ~384 kbps
    Субтитры: Русские (полные (FOCS))

    MI

    General
    Complete name : C:\TOR\Made.in.Italy.2020.HDRip.ELEKTRI4KA.UNIONGANG\Made.in.Italy.2020.HDRip.ELEKTRI4KA.UNIONGANG.avi
    Format : AVI
    Format/Info : Audio Video Interleave
    File size : 1.46 GiB
    Duration : 1 h 33 min
    Overall bit rate : 2 231 kb/s
    Writing application : VirtualDubMod 1.5.10.3 | www.virtualdub-fr.org || (build 2550/release)
    Writing library : VirtualDubMod build 2550/release
    Video
    ID : 0
    Format : MPEG-4 Visual
    Format profile : Advanced Simple@L5
    Format settings : BVOP1
    Format settings, BVOP : 1
    Format settings, QPel : No
    Format settings, GMC : No warppoints
    Format settings, Matrix : Default (MPEG)
    Codec ID : XVID
    Codec ID/Hint : XviD
    Duration : 1 h 33 min
    Bit rate : 1 750 kb/s
    Width : 704 pixels
    Height : 384 pixels
    Display aspect ratio : 1.85:1
    Frame rate : 23.976 (24000/1001) FPS
    Color space : YUV
    Chroma subsampling : 4:2:0
    Bit depth : 8 bits
    Scan type : Progressive
    Compression mode : Lossy
    Bits/(Pixel*Frame) : 0.270
    Stream size : 1.15 GiB (78%)
    Writing library : XviD 69
    Audio
    ID : 1
    Format : AC-3
    Format/Info : Audio Coding 3
    Commercial name : Dolby Digital
    Codec ID : 2000
    Duration : 1 h 33 min
    Bit rate mode : Constant
    Bit rate : 384 kb/s
    Channel(s) : 6 channels
    Channel layout : L R C LFE Ls Rs
    Sampling rate : 48.0 kHz
    Frame rate : 31.250 FPS (1536 SPF)
    Compression mode : Lossy
    Stream size : 257 MiB (17%)
    Alignment : Split across interleaves
    Service kind : Complete Main

    Скриншоты

    Показать сообщения:    
    Главная  Кинофильмы  Зарубежные кинофильмы

    Текущее время: 19-Янв 13:33

    Часовой пояс: UTC + 5



    Вы не можете начинать темы
    Вы не можете отвечать на сообщения
    Вы не можете редактировать свои сообщения
    Вы не можете удалять свои сообщения
    Вы не можете голосовать в опросах
    Вы не можете прикреплять файлы к сообщениям
    Вы не можете скачивать файлы