Уважаемые гости сайта! Добро Пожаловать на наш торрент трекер,где Вы можете бесплатно скачать любой Софт,Фильмы,Музыку и многое другое! А так же постоянно ведется набор модераторов и релизеров. Зарегистрируйтесь сейчас, чтобы получить доступ ко всем функциям. После регистрации или входа на сайт вы сможете создавать темы, отвечать на сообщения и скачивать файлы.

Навигация по Торрент раздачам и Форум и Стол заказов и Группы

 Девушка на час / Девушка напрокат / Kanojo, Okarishimasu [TV-1] [12 из 12] (Тосифуми Акаи, Ацуси Нисигори, Тэнсаи Окамура) [2020, Комедия, романтика, школа, сёнэн, WEB-DLRip] DVO (AniMedia)

Главная  Аниме  Сериалы  Аниме Сериалы
Статистика раздачи
Качаю: [ 1 ]
Скачал: [ 1 ]
Сегодня идет свободное скачивание без начисления Download
 
     
 
 
 
Автор Сообщение
  • Создавать темы 09-Янв-2021 16:04

    Девушка на час / Девушка напрокат / Kanojo, Okarishimasu-- Дата выхода: 2020
    Производство: Япония
    Студия: TMS Entertainment, Studio Comet
    Жанр: комедия, романтика, школа, сёнэн
    Продолжительность: ~00:25:00 x 12 серий
    Перевод: Любительский (двухголосый закадровый) AniMedia (Demi4 & Morin)
    Перевод: Оригинал + Субтитры-Автор оригинала: Миядзима Рэйдзи
    Снято по манге: Девушка на час
    Режиссер: Тосифуми Акаи, Ацуси Нисигори, Тэнсаи Окамура-В главных ролях: Юитиро Умэхара, Харука Томацу, Кана Итиносэ, Хироки Гото, Даики Хамано, Саори Хаями, Кэнъю Хориути, Аои Итикава, Марина Иноуэ, Сидзука Исигами-Описание: Кадзуя Киносита — двадцатилетний студент-неудачник. Ему всего раз довелось поцеловать свою девушку, и спустя буквально один месяц общения она его бросила. «Новые отношения? Никогда!» — подумал он про себя. В отчаянии юноша обратился к иному способу найти женскую компанию. И вот, в назначенный час его окликнули: «Ты Кадзуя, верно?». На него, улыбаясь, смотрела обворожительная брюнетка, поправив длинные волосы. Её звали Тидзуру Мидзухара. Всего одна встреча — и что-то новое и настоящее зародилось в сердце Кадзуи. Учитывая обстоятельства, впереди его ждала увлекательная любовная комедия.-Качество: WEB-DLRip
    Формат: AVI
    Видео: XviD, 720x400 (16:9), 23.976 fps, 1 367 kb/s (0.198 bit/pixel)
    Аудио №1: AC-3, 48,0 КГц, 2 ch, 192 Кбит/сек, CBR | | AniMedia
    Аудио №2: AC-3, 48,0 КГц, 2 ch, 192 Кбит/сек, CBR | | Оригинал
    Субтитры: Русские (полные); English (Full Sub)--

    MI

    General
    Complete name : [Deadmau- RAWS] Девушка.на.час.S01.2020.RUS.JAP.WEB-DLRip.Deadmauvlad.Ep.01.avi
    Format : AVI
    Format/Info : Audio Video Interleave
    File size : 328 MiB
    Duration : 24 min 26 s
    Overall bit rate : 1 875 kb/s
    Director : Encoder by Deadmauvlad
    Writing application : VirtualDubMod 1.5.10.3 | www.virtualdub-fr.org || (build 2550/release)
    Writing library : VirtualDubMod build 2550/release
    Copyright : Encoder by Deadmauvlad
    Video
    ID : 0
    Format : MPEG-4 Visual
    Format profile : Advanced Simple@L5
    Format settings : BVOP1 / Custom Matrix
    Format settings, BVOP : 1
    Format settings, QPel : No
    Format settings, GMC : No warppoints
    Format settings, Matrix : Custom
    Codec ID : XVID
    Codec ID/Hint : XviD
    Duration : 24 min 26 s
    Bit rate : 1 477 kb/s
    Width : 720 pixels
    Height : 400 pixels
    Display aspect ratio : 16:9
    Frame rate : 23.976 (24000/1001) FPS
    Color space : YUV
    Chroma subsampling : 4:2:0
    Bit depth : 8 bits
    Scan type : Progressive
    Compression mode : Lossy
    Bits/(Pixel*Frame) : 0.214
    Stream size : 258 MiB (79%)
    Writing library : XviD 73
    Audio #1
    ID : 1
    Format : AC-3
    Format/Info : Audio Coding 3
    Commercial name : Dolby Digital
    Codec ID : 2000
    Duration : 24 min 26 s
    Bit rate mode : Constant
    Bit rate : 192 kb/s
    Channel(s) : 2 channels
    Channel layout : L R
    Sampling rate : 48.0 kHz
    Frame rate : 31.250 FPS (1536 SPF)
    Bit depth : 16 bits
    Compression mode : Lossy
    Stream size : 33.6 MiB (10%)
    Alignment : Split accross interleaves
    Interleave, duration : 42 ms (1.00 video frame)
    Interleave, preload duration : 500 ms
    Audio #2
    ID : 2
    Format : AC-3
    Format/Info : Audio Coding 3
    Commercial name : Dolby Digital
    Codec ID : 2000
    Duration : 24 min 26 s
    Bit rate mode : Constant
    Bit rate : 192 kb/s
    Channel(s) : 2 channels
    Channel layout : L R
    Sampling rate : 48.0 kHz
    Frame rate : 31.250 FPS (1536 SPF)
    Bit depth : 16 bits
    Compression mode : Lossy
    Stream size : 33.6 MiB (10%)
    Alignment : Split accross interleaves
    Interleave, duration : 42 ms (1.00 video frame)
    Interleave, preload duration : 500 ms

    _________________
    Показать сообщения:    
    Главная  Аниме  Сериалы  Аниме Сериалы

    Текущее время: 19-Янв 12:35

    Часовой пояс: UTC + 5



    Вы не можете начинать темы
    Вы не можете отвечать на сообщения
    Вы не можете редактировать свои сообщения
    Вы не можете удалять свои сообщения
    Вы не можете голосовать в опросах
    Вы не можете прикреплять файлы к сообщениям
    Вы не можете скачивать файлы