Уважаемые гости сайта! Добро Пожаловать на наш торрент трекер,где Вы можете бесплатно скачать любой Софт,Фильмы,Музыку и многое другое! А так же постоянно ведется набор модераторов и релизеров. Зарегистрируйтесь сейчас, чтобы получить доступ ко всем функциям. После регистрации или входа на сайт вы сможете создавать темы, отвечать на сообщения и скачивать файлы.

Навигация по Торрент раздачам и Форум и Стол заказов и Группы

 Взаперти / Run (Аниш Чаганти / Aneesh Chaganty) [2020, Триллер, драма, детектив, WEB-DL 1080p] DUB (iTunes)

Главная  Кинофильмы  Зарубежные кинофильмы
Статистика раздачи
Нет
 
     
 
 
 
Автор Сообщение
  • kisel ®
  • Не в сети

    Автор темы

  • 7467
  • Пол: Мужской

  • Стаж: 3 месяца 12 дней

  • Сообщений: 26

  • Провайдер: UzOnline UzOnline

  • Карма: 0


  • Нет нарушения:

  • Награды: Нет
  • Создавать темы 07-Янв-2021 02:26

    Взаперти / Run
    «От материнской любви спасения нет»
    Год выпуска: 2020
    Страна: США / Lionsgate
    Жанр: триллер, драма, детектив
    Продолжительность: 01:29:35
    Перевод: Профессиональный (полное дублирование) [iTunes]
    Субтитры: Russian (Forced), English (Full)-Режиссер: Аниш Чаганти-В ролях: Сара Полсон, Кира Аллен, Онали Эймс, Пэт Хили, Картер Хейнц, Сара Сон, Кларк Уэбстер, Конан Ходжкинсон, Эрик Атхавале, Брэдли Савацки-Описание:
    Гиперзаботливая мать Диана Шерман растит дочь Хлою в полной изоляции, контролируя каждый её шаг. Та прикована к инвалидному креслу, принимает множество таблеток, обучается дома и не общается со сверстниками. Разумеется, Хлоя растет наивной девушкой, но однажды она начинает подозревать что-то неладное.
    -Рейтинг:
    -Качество: WEB-DL 1080p
    Формат: MKV
    Видео: AVC, 4568 Kbit/s, 1920x802, 24.000 fps
    Аудио1: 48 kHz, AC3 Dolby Digital, 3/2 (L, C, R, l, r) + LFE ch, ~384 kbps | русский
    Аудио2: 48 kHz, AC3 Dolby Digital, 3/2 (L, C, R, l, r) + LFE ch, ~384 kbps | английский

    MI

    General
    Unique ID : 171448789640799104760013007738431209669 (0x80FBD5F65247639E9D313A483D6600C5)
    Complete name : C:\TOR\Run.2020.WEB-DL.1080p.mkv
    Format : Matroska
    Format version : Version 4
    File size : 3.33 GiB
    Duration : 1 h 29 min
    Overall bit rate : 5 336 kb/s
    Movie name : .ELEKTRI4KA.UNIONGANG.
    Encoded date : UTC 2021-01-04 21:57:26
    Writing application : mkvmerge v8.3.0 ('Over the Horizon') 64bit
    Writing library : libebml v1.3.1 + libmatroska v1.4.2
    Video
    ID : 1
    Format : AVC
    Format/Info : Advanced Video Codec
    Format profile : High@L4
    Format settings : CABAC / 5 Ref Frames
    Format settings, CABAC : Yes
    Format settings, Reference fra : 5 frames
    Codec ID : V_MPEG4/ISO/AVC
    Duration : 1 h 29 min
    Bit rate : 4 568 kb/s
    Width : 1 920 pixels
    Height : 802 pixels
    Display aspect ratio : 2.40:1
    Frame rate mode : Constant
    Frame rate : 24.000 FPS
    Color space : YUV
    Chroma subsampling : 4:2:0
    Bit depth : 8 bits
    Scan type : Progressive
    Bits/(Pixel*Frame) : 0.124
    Stream size : 2.85 GiB (86%)
    Title : .ELEKTRI4KA.UNIONGANG.
    Language : English
    Default : Yes
    Forced : No
    Color range : Limited
    Color primaries : BT.709
    Transfer characteristics : BT.709
    Matrix coefficients : BT.709
    Audio #1
    ID : 2
    Format : AC-3
    Format/Info : Audio Coding 3
    Commercial name : Dolby Digital
    Codec ID : A_AC3
    Duration : 1 h 29 min
    Bit rate mode : Constant
    Bit rate : 384 kb/s
    Channel(s) : 6 channels
    Channel layout : L R C LFE Ls Rs
    Sampling rate : 48.0 kHz
    Frame rate : 31.250 FPS (1536 SPF)
    Compression mode : Lossy
    Stream size : 245 MiB (7%)
    Title : DUB (iTunes)
    Language : Russian
    Service kind : Complete Main
    Default : Yes
    Forced : No
    Audio #2
    ID : 3
    Format : AC-3
    Format/Info : Audio Coding 3
    Commercial name : Dolby Digital
    Codec ID : A_AC3
    Duration : 1 h 29 min
    Bit rate mode : Constant
    Bit rate : 384 kb/s
    Channel(s) : 6 channels
    Channel layout : L R C LFE Ls Rs
    Sampling rate : 48.0 kHz
    Frame rate : 31.250 FPS (1536 SPF)
    Compression mode : Lossy
    Stream size : 245 MiB (7%)
    Title : Original
    Language : English
    Service kind : Complete Main
    Default : No
    Forced : No
    Text #1
    ID : 4
    Format : UTF-8
    Codec ID : S_TEXT/UTF8
    Codec ID/Info : UTF-8 Plain Text
    Duration : 1 h 26 min
    Bit rate : 0 b/s
    Count of elements : 5
    Stream size : 109 Bytes (0%)
    Title : Forced
    Language : Russian
    Default : Yes
    Forced : No
    Text #2
    ID : 5
    Format : UTF-8
    Codec ID : S_TEXT/UTF8
    Codec ID/Info : UTF-8 Plain Text
    Duration : 1 h 25 min
    Bit rate : 35 b/s
    Count of elements : 834
    Stream size : 22.0 KiB (0%)
    Title : Full
    Language : English
    Default : No
    Forced : No
    Menu
    00:00:00.000 : en:Глава 1
    00:02:52.083 : en:Глава 2
    00:10:09.291 : en:Глава 3
    00:20:12.124 : en:Глава 4
    00:28:40.290 : en:Глава 5
    00:38:20.206 : en:Глава 6
    00:46:43.747 : en:Глава 7
    00:54:58.705 : en:Глава 8
    01:02:13.788 : en:Глава 9
    01:10:47.996 : en:Глава 10
    01:21:08.371 : en:Глава 11

    Скриншоты

    Показать сообщения:    
    Главная  Кинофильмы  Зарубежные кинофильмы

    Текущее время: 13-Апр 05:30

    Часовой пояс: UTC + 5



    Вы не можете начинать темы
    Вы не можете отвечать на сообщения
    Вы не можете редактировать свои сообщения
    Вы не можете удалять свои сообщения
    Вы не можете голосовать в опросах
    Вы не можете прикреплять файлы к сообщениям
    Вы не можете скачивать файлы