Уважаемые гости сайта! Добро Пожаловать на наш торрент трекер,где Вы можете бесплатно скачать любой Софт,Фильмы,Музыку и многое другое! А так же постоянно ведется набор модераторов и релизеров. Зарегистрируйтесь сейчас, чтобы получить доступ ко всем функциям. После регистрации или входа на сайт вы сможете создавать темы, отвечать на сообщения и скачивать файлы.

Навигация по Торрент раздачам и Форум и Стол заказов и Группы

 Ширли / Shirley (Жозефин Декер) [2020. Триллер, драма, биография WEB-DLRip] DUB (iTunes)

Главная  Кинофильмы  Зарубежные кинофильмы
Статистика раздачи
Нет
 
     
 
 
 
Автор Сообщение
  • kisel ®
  • Не в сети

    Автор темы

  • 7467
  • Пол: Мужской

  • Стаж: 3 месяца 18 дней

  • Сообщений: 26

  • Провайдер: UzOnline UzOnline

  • Карма: 0


  • Нет нарушения:

  • Награды: Нет
  • Создавать темы 03-Янв-2021 17:13

    Информация о фильме
    Название: Ширли
    Оригинальное название: Shirley
    Год выхода: 2020
    Жанр: Триллер, драма, биография
    Режиссер: Жозефин Декер
    В ролях: Элизабет Мосс, Логан Лерман, Майкл Стулбарг, Одесса Янг, Виктория Педретти, Роберт Вул, Пол О’Брайэн, Орла Кэссиди, Биссерат Цеггай, Аллен МакКалло
    О фильме:
    1960-е. Американская писательница Ширли Джексон, известная своими страшными и мрачными историями, находится в мучительных поисках вдохновения. Ее муж, профессор Стэнли, приглашает молодого ассистента Фреда, приехавшего вместе с красавицей-женой Рози. Она оказывается восторженной поклонницей Ширли. Но у знаменитой писательницы есть свои секреты, и жизнь в одном доме с «гением ужасов» не пройдет для гостей бесследно.

    Страна: США
    Студия: Los Angeles Media Fund (LAMF), Killer Films, Mechanism Digital
    Продолжительность: 01:46:46
    Перевод: Дублированный | iTunes
    Формат: MKV
    Качество: WEB-DLRip | AMAZON
    Видео: XviD, 1567 Кбит/с, 720x384
    Звук: AC3, 6 ch, 384 Кбит/с

    MI

    General
    Complete name : I:\Shirley.2020.AMZN.WEB-DLRip.ELEKTRI4KA.UNIONGANG.avi
    Format : AVI
    Format/Info : Audio Video Interleave
    File size : 1.46 GiB
    Duration : 1 h 46 min
    Overall bit rate : 1 960 kb/s
    Writing application : VirtualDubMod 1.5.10.3 | www.virtualdub-fr.org || (build 2550/release)
    Writing library : VirtualDubMod build 2550/release
    Video
    ID : 0
    Format : MPEG-4 Visual
    Format profile : Advanced Simple@L5
    Format settings : BVOP1
    Format settings, BVOP : 1
    Format settings, QPel : No
    Format settings, GMC : No warppoints
    Format settings, Matrix : Default (MPEG)
    Codec ID : XVID
    Codec ID/Hint : XviD
    Duration : 1 h 46 min
    Bit rate : 1 567 kb/s
    Width : 720 pixels
    Height : 384 pixels
    Display aspect ratio : 1.85:1
    Frame rate : 23.976 (24000/1001) FPS
    Color space : YUV
    Chroma subsampling : 4:2:0
    Bit depth : 8 bits
    Scan type : Progressive
    Compression mode : Lossy
    Bits/(Pixel*Frame) : 0.236
    Stream size : 1.17 GiB (80%)
    Writing library : XviD 69
    Audio
    ID : 1
    Format : AC-3
    Format/Info : Audio Coding 3
    Commercial name : Dolby Digital
    Codec ID : 2000
    Duration : 1 h 46 min
    Bit rate mode : Constant
    Bit rate : 384 kb/s
    Channel(s) : 6 channels
    Channel layout : L R C LFE Ls Rs
    Sampling rate : 48.0 kHz
    Frame rate : 31.250 FPS (1536 SPF)
    Compression mode : Lossy
    Stream size : 293 MiB (20%)
    Alignment : Split across interleaves
    Interleave, duration : 42 ms (1.00 video frame)
    Interleave, preload duration : 500 ms
    Service kind : Complete Main

    Скриншоты

    Показать сообщения:    
    Главная  Кинофильмы  Зарубежные кинофильмы

    Текущее время: 19-Апр 04:27

    Часовой пояс: UTC + 5



    Вы не можете начинать темы
    Вы не можете отвечать на сообщения
    Вы не можете редактировать свои сообщения
    Вы не можете удалять свои сообщения
    Вы не можете голосовать в опросах
    Вы не можете прикреплять файлы к сообщениям
    Вы не можете скачивать файлы