Уважаемые гости сайта! Добро Пожаловать на наш торрент трекер,где Вы можете бесплатно скачать любой Софт,Фильмы,Музыку и многое другое! А так же постоянно ведется набор модераторов и релизеров. Зарегистрируйтесь сейчас, чтобы получить доступ ко всем функциям. После регистрации или входа на сайт вы сможете создавать темы, отвечать на сообщения и скачивать файлы.

Навигация по Торрент раздачам и Форум и Стол заказов и Группы

 Бесшумный / The Silencing (Робин Пронт) [2020, Боевик, триллер, криминал, BDRip 1080p] DUB (iTunes)

Главная  Кинофильмы  Зарубежные кинофильмы
Статистика раздачи
Скачал: [ 1 ]
 
     
 
 
 
Автор Сообщение
  • kisel ®
  • Не в сети

    Автор темы

  • 7467
  • Пол: Мужской

  • Стаж: 3 месяца 18 дней

  • Сообщений: 26

  • Провайдер: UzOnline UzOnline

  • Карма: 0


  • Нет нарушения:

  • Награды: Нет
  • Создавать темы 03-Янв-2021 15:16

    Название: Бесшумный
    Оригинальное название: The Silencing
    Год выхода: 2020
    Жанр: Боевик, триллер, криминал
    Режиссер: Робин Пронт
    В ролях: Николай Костер-Валдау, Аннабелль Уоллис, Зан Маккларнон, Мелани Скрофано, Хиро Файнс-Тиффин, Джош Круддас, Даниэль Райан, Даина Барбо, Шон Смит
    О фильме: Мужчина с тяжелым прошлым живёт в уединении в лесу, когда на местности начинают находить девушек, убитых необычным способом. Он объединяется с шерифом, пытается выследить маньяка и вскоре начинает подозревать, что тот несколько лет назад похитил его дочь.

    Выпущено: Канада, США / Anova Pictures, Madrona Drive, Silencing Canada Productions, Wildling Pictures
    Продолжительность: 01:34:32
    Озвучивание: Дублированное | iTunes
    Файл
    Формат: MKV
    Качество: BDRip 1080p
    Видео: MPEG-4 AVC, 10.3 Mb/s, 1920x800
    Аудио #1: Russian: 48 kHz, AC3 Dolby Digital~384 Kbps | DUB | iTunes
    Аудио #2: Ukrainian: 48 kHz, AC3 Dolby Digital~640 Kbps | DVO | В одне рило
    Аудио #3: English: 48 kHz, DTS Digital Theater System~1509 Kbps | Original
    Субтитры: Russian (Forсed, Full), Ukrainian (Full), English
    Дополнительно: Сохранены оригинальные чаптеры.

    MediaInfo:

    Complete name : Dogovor.molchaniya.2020.BDRip.1080p.ELEKTRI4KA.UNIONGANG.mkv
    Format : Matroska
    Format version : Version 4 / Version 2
    File size : 8.47 GiB
    Duration : 1 h 34 min
    Overall bit rate : 12.8 Mb/s
    Movie name : .ELEKTRI4KA.UNIONGANG.
    Encoded date : UTC 2020-12-31 20:09:51
    Writing application : mkvmerge v8.3.0 ('Over the Horizon') 64bit
    Writing library : libebml v1.3.1 + libmatroska v1.4.2
    Video
    ID : 1
    Format : AVC
    Format/Info : Advanced Video Codec
    Format profile : High@L4.1
    Format settings, CABAC : Yes
    Format settings, Reference frames : 5 frames
    Codec ID : V_MPEG4/ISO/AVC
    Duration : 1 h 34 min
    Bit rate : 10.3 Mb/s
    Width : 1 920 pixels
    Height : 800 pixels
    Display aspect ratio : 2.40:1
    Frame rate mode : Constant
    Frame rate : 23.976 (24000/1001) FPS
    Color space : YUV
    Chroma subsampling : 4:2:0
    Bit depth : 8 bits
    Scan type : Progressive
    Bits/(Pixel*Frame) : 0.280
    Stream size : 6.80 GiB (80%)
    Writing library : x264 core 157 r2958 57baac4
    Encoding settings : cabac=1 / ref=5 / deblock=1:-3:-3 / analyse=0x3:0x113 / me=umh / subme=11 / psy=1 / psy_rd=1.00:0.00 / mixed_ref=1 / me_range=48 / chroma_me=1 / trellis=2 / 8x8dct=1 / cqm=0 / deadzone=21,11 / fast_pskip=1 / chroma_qp_offset=-2 / threads=18 / lookahead_threads=3 / sliced_threads=0 / nr=0 / decimate=1 / interlaced=0 / bluray_compat=0 / constrained_intra=0 / bframes=8 / b_pyramid=2 / b_adapt=2 / b_bias=0 / direct=3 / weightb=1 / open_gop=0 / weightp=2 / keyint=240 / keyint_min=24 / scenecut=40 / intra_refresh=0 / rc_lookahead=60 / rc=2pass / mbtree=1 / bitrate=10300 / ratetol=1.0 / qcomp=0.60 / qpmin=0 / qpmax=69 / qpstep=4 / cplxblur=20.0 / qblur=0.5 / vbv_maxrate=50000 / vbv_bufsize=60500 / nal_hrd=none / filler=0 / ip_ratio=1.40 / aq=1:1.00
    Language : English
    Default : Yes
    Forced : No
    Audio #1
    ID : 2
    Format : AC-3
    Format/Info : Audio Coding 3
    Mode extension : CM (complete main)
    Format settings, Endianness : Big
    Codec ID : A_AC3
    Duration : 1 h 34 min
    Bit rate mode : Constant
    Bit rate : 384 kb/s
    Channel(s) : 6 channels
    Channel positions : Front: L C R, Side: L R, LFE
    Sampling rate : 48.0 kHz
    Frame rate : 31.250 FPS (1536 spf)
    Bit depth : 16 bits
    Compression mode : Lossy
    Stream size : 260 MiB (3%)
    Title : DUB (iTunes)
    Language : Russian
    Default : Yes
    Forced : Yes
    Audio #2
    ID : 3
    Format : AC-3
    Format/Info : Audio Coding 3
    Mode extension : CM (complete main)
    Format settings, Endianness : Big
    Codec ID : A_AC3
    Duration : 1 h 34 min
    Bit rate mode : Constant
    Bit rate : 640 kb/s
    Channel(s) : 6 channels
    Channel positions : Front: L C R, Side: L R, LFE
    Sampling rate : 48.0 kHz
    Frame rate : 31.250 FPS (1536 spf)
    Bit depth : 16 bits
    Compression mode : Lossy
    Stream size : 433 MiB (5%)
    Title : DVO | В одне рило
    Language : Ukrainian
    Default : No
    Forced : No
    Audio #3
    ID : 4
    Format : DTS
    Format/Info : Digital Theater Systems
    Mode : 16
    Format settings, Endianness : Big
    Codec ID : A_DTS
    Duration : 1 h 34 min
    Bit rate mode : Constant
    Bit rate : 1 509 kb/s
    Channel(s) : 6 channels
    Channel positions : Front: L C R, Side: L R, LFE
    Sampling rate : 48.0 kHz
    Frame rate : 93.750 FPS (512 spf)
    Bit depth : 24 bits
    Compression mode : Lossy
    Stream size : 1 020 MiB (12%)
    Title : DTS Surround 5.1
    Language : English
    Default : No
    Forced : No
    Text #1
    ID : 5
    Format : UTF-8
    Codec ID : S_TEXT/UTF8
    Codec ID/Info : UTF-8 Plain Text
    Duration : 1 h 22 min
    Bit rate : 2 b/s
    Count of elements : 29
    Stream size : 1.63 KiB (0%)
    Title : Forced
    Language : Russian
    Default : Yes
    Forced : No
    Text #2
    ID : 6
    Format : UTF-8
    Codec ID : S_TEXT/UTF8
    Codec ID/Info : UTF-8 Plain Text
    Duration : 1 h 25 min
    Bit rate : 50 b/s
    Count of elements : 681
    Stream size : 31.9 KiB (0%)
    Title : Focs
    Language : Russian
    Default : No
    Forced : No
    Text #3
    ID : 7
    Format : UTF-8
    Codec ID : S_TEXT/UTF8
    Codec ID/Info : UTF-8 Plain Text
    Duration : 1 h 25 min
    Bit rate : 52 b/s
    Count of elements : 668
    Stream size : 33.1 KiB (0%)
    Title : Khotya-303
    Language : Russian
    Default : No
    Forced : No
    Text #4
    ID : 8
    Format : UTF-8
    Codec ID : S_TEXT/UTF8
    Codec ID/Info : UTF-8 Plain Text
    Duration : 1 h 25 min
    Bit rate : 43 b/s
    Count of elements : 672
    Stream size : 27.6 KiB (0%)
    Title : Full
    Language : Ukrainian
    Default : No
    Forced : No
    Text #5
    ID : 9
    Format : UTF-8
    Codec ID : S_TEXT/UTF8
    Codec ID/Info : UTF-8 Plain Text
    Duration : 1 h 28 min
    Bit rate : 28 b/s
    Count of elements : 684
    Stream size : 18.7 KiB (0%)
    Language : English
    Default : No
    Forced : No
    Menu
    00:00:00.000 : en:Chapter 1
    00:04:47.453 : en:Chapter 2
    00:09:15.721 : en:Chapter 3
    00:12:39.800 : en:Chapter 4
    00:17:16.410 : en:Chapter 5
    00:22:32.476 : en:Chapter 6
    00:28:47.058 : en:Chapter 7
    00:34:04.250 : en:Chapter 8
    00:41:10.759 : en:Chapter 9
    00:47:53.245 : en:Chapter 10
    00:54:38.858 : en:Chapter 11
    00:59:10.380 : en:Chapter 12
    01:05:07.612 : en:Chapter 13
    01:10:54.959 : en:Chapter 14
    01:17:58.090 : en:Chapter 15
    01:26:57.712 : en:Chapter 16

    Скриншоты

    Показать сообщения:    
    Главная  Кинофильмы  Зарубежные кинофильмы

    Текущее время: 19-Апр 05:09

    Часовой пояс: UTC + 5



    Вы не можете начинать темы
    Вы не можете отвечать на сообщения
    Вы не можете редактировать свои сообщения
    Вы не можете удалять свои сообщения
    Вы не можете голосовать в опросах
    Вы не можете прикреплять файлы к сообщениям
    Вы не можете скачивать файлы