Уважаемые гости сайта! Добро Пожаловать на наш торрент трекер,где Вы можете бесплатно скачать любой Софт,Фильмы,Музыку и многое другое! А так же постоянно ведется набор модераторов и релизеров. Зарегистрируйтесь сейчас, чтобы получить доступ ко всем функциям. После регистрации или входа на сайт вы сможете создавать темы, отвечать на сообщения и скачивать файлы.

Навигация по Торрент раздачам и Форум и Стол заказов и Группы

 Омен. Наследие / Letto numero 6 (Милена Кокоцца) [2019, Ужасы, триллер, драма, WEB-DL 1080p] DUB (iTunes)

Главная  Кинофильмы  Зарубежные кинофильмы
Статистика раздачи
Нет
 
     
 
 
 
Автор Сообщение
  • kisel ®
  • Не в сети

    Автор темы

  • 7467
  • Пол: Мужской

  • Стаж: 3 месяца 18 дней

  • Сообщений: 26

  • Провайдер: UzOnline UzOnline

  • Карма: 0


  • Нет нарушения:

  • Награды: Нет
  • Создавать темы 03-Янв-2021 14:21

    Информация о фильме
    Название: Омен. Наследие
    Оригинальное название: Letto numero 6
    Год выхода: 2019
    Жанр: Ужасы, триллер, драма
    Режиссер: Милена Кокоцца
    В ролях: Каролина Крешентини, Андреа Латтанци, Роберто Читран, Пьер Джорджо Беллоккьо, Натали Кальдонаццо, Карла Кассола
    О фильме: Молодая медсестра устраивается работать в ночную смену в детскую клинику. В первую же ночь она знакомится там с мальчиком, который все время зовет свою маму. Она успокаивает его, но на следующий день узнает, что кроме неё этого мальчика в больнице больше никто не видел. Стены этой больницы хранят мрачные тайны и уже совсем скоро эти тайны грозят обернуться страшной опасностью всем, кто находится в клинике.

    Страна: Италия, Аргентина
    Студия: Madeleine, Mompracem, RAI Cinema, Romana Audiovisual
    Продолжительность: 01:52:15
    Перевод: Дублированный | iTunes
    Файл
    Формат: MKV
    Качество: WEB-DL 1080p
    Видео: MPEG-4 AVC, 1920x802 (2.40:1), 4593 Kbps, 24.000 fps
    Аудио: Russian: 48 kHz, AC3, 3/2 (L,C,R,l,r) + LFE ch, ~384 kbps
    Субтитры: Нет

    Скриншоты

    MediaInfo

    General
    Unique ID : 300882140804053693743856053517399075346 (0xE25BCADF5A33750BC96653FBE4A7AA12)
    Complete name : LETTO_№6_2020_WEB-DL_1080p-BLUEBIRD.mkv
    Format : Matroska
    Format version : Version 4 / Version 2
    File size : 3.90 GiB
    Duration : 1 h 52 min
    Overall bit rate : 4 979 kb/s
    Encoded date : UTC 2020-12-30 19:17:45
    Writing application : mkvmerge v51.0.0 ('I Wish') 64-bit
    Writing library : libebml v1.4.0 + libmatroska v1.6.2
    Cover : Yes
    Attachments : cover.jpg
    Video
    ID : 1
    Format : AVC
    Format/Info : Advanced Video Codec
    Format profile : High@L4
    Format settings, CABAC : Yes
    Format settings, RefFrames : 5 frames
    Codec ID : V_MPEG4/ISO/AVC
    Duration : 1 h 52 min
    Bit rate : 4 593 kb/s
    Width : 1 920 pixels
    Height : 802 pixels
    Display aspect ratio : 2.40:1
    Frame rate mode : Constant
    Frame rate : 24.000 FPS
    Color space : YUV
    Chroma subsampling : 4:2:0
    Bit depth : 8 bits
    Scan type : Progressive
    Bits/(Pixel*Frame) : 0.124
    Stream size : 3.60 GiB (92%)
    Language : English
    Default : Yes
    Forced : No
    Color range : Limited
    Color primaries : BT.709
    Transfer characteristics : BT.709
    Matrix coefficients : BT.709
    Audio
    ID : 2
    Format : AC-3
    Format/Info : Audio Coding 3
    Format settings, Endianness : Big
    Codec ID : A_AC3
    Duration : 1 h 52 min
    Bit rate mode : Constant
    Bit rate : 384 kb/s
    Channel(s) : 6 channels
    Channel positions : Front: L C R, Side: L R, LFE
    Sampling rate : 48.0 kHz
    Frame rate : 31.250 FPS (1536 SPF)
    Bit depth : 16 bits
    Compression mode : Lossy
    Stream size : 308 MiB (8%)
    Title : [DUB] DD 5.1 @ 384 kbps (iTunes)
    Language : Russian
    Service kind : Complete Main
    Default : Yes
    Forced : No
    Menu
    00:00:00.000 : en:Глава 1
    00:09:09.166 : en:Глава 2
    00:16:32.457 : en:Глава 3
    00:24:37.790 : en:Глава 4
    00:32:12.831 : en:Глава 5
    00:39:32.747 : en:Глава 6
    00:47:06.538 : en:Глава 7
    00:53:50.038 : en:Глава 8
    01:01:36.579 : en:Глава 9
    01:08:54.995 : en:Глава 10
    01:17:49.370 : en:Глава 11
    01:27:01.245 : en:Глава 12
    01:33:29.078 : en:Глава 13
    01:39:40.078 : en:Глава 14
    01:46:06.078 : en:Глава 15
    Показать сообщения:    
    Главная  Кинофильмы  Зарубежные кинофильмы

    Текущее время: 19-Апр 04:07

    Часовой пояс: UTC + 5



    Вы не можете начинать темы
    Вы не можете отвечать на сообщения
    Вы не можете редактировать свои сообщения
    Вы не можете удалять свои сообщения
    Вы не можете голосовать в опросах
    Вы не можете прикреплять файлы к сообщениям
    Вы не можете скачивать файлы