Уважаемые гости сайта! Добро Пожаловать на наш торрент трекер,где Вы можете бесплатно скачать любой Софт,Фильмы,Музыку и многое другое! А так же постоянно ведется набор модераторов и релизеров. Зарегистрируйтесь сейчас, чтобы получить доступ ко всем функциям. После регистрации или входа на сайт вы сможете создавать темы, отвечать на сообщения и скачивать файлы.

Навигация по Торрент раздачам и Форум и Стол заказов и Группы

 Вдова (Иван Минин) [2020, Ужасы, триллер, WEB-DL 1080p] iTunes

Главная  Кинофильмы  Российские кинофильмы
Статистика раздачи
Нет
Сегодня идет свободное скачивание без начисления Download
 
     
 
 
 
Автор Сообщение
  • kisel ®
  • Не в сети

    Автор темы

  • 7467
  • Пол: Мужской

  • Стаж: 25 дней

  • Сообщений: 26

  • Провайдер: UzOnline UzOnline

  • Карма: 0


  • Нет нарушения:

  • Награды: Нет
  • Создавать темы 03-Янв-2021 14:11

    Информация о фильме
    Название: Вдова
    Год выхода: 2020
    Жанр: Ужасы, триллер
    Страна: Россия
    Перевод: Не требуется
    Продолжительность: 01:22:27
    Режиссер: Иван Минин
    В ролях: Виктория Потемина, Анастасия Грибова, Маргарита Бычкова, Илья Агапов, Алексей Анискин, Константин Нестерко, Олег Чугунов и др.
    О фильме: Ежегодно в лесах на севере Ленинградской области пропадает более 300 человек. Известны случаи, когда тела пропавших находят посреди леса – полностью обнаженными, без каких-либо следов насильственной смерти. Во время учений команда волонтеров-спасателей получает сообщение о потерявшемся мальчике. Углубляясь в глухой лес, поисковый отряд сталкивается со зловещей сущностью: согласно преданиям, здесь обитает неупокоенный дух давно погибшей ведьмы, которую местные называют Хромой Вдовой. Они верят, что встреча со Вдовой несет смерть…

    Файл
    Качество: WEB-DL 1080p
    Видео: MPEG-4 AVC, 1920x804, 4577 kbps, 25,000 fps
    Звук: русский, AC3, 5.1 ch, 48 kHz, 384 kbps
    Субтитры: нет

    MI

    Общее
    Уникальный идентификатор : 220671106015902914612165022091418505171 (0xA603B5872A4CAEED959FDD7423678FD3)
    Полное имя : C:UtorrentVdovaWEBDL1080p.mkv
    Формат : Matroska
    Версия формата : Version 4 / Version 2
    Размер файла : 2,86 Гбайт
    Продолжительность : 1 ч. 22 м.
    Общий поток : 4963 Кбит/сек
    Дата кодирования : UTC 2020-12-31 19:24:57
    Программа кодирования : mkvmerge v9.5.0 ('Quiet Fire') 64bit
    Библиотека кодирования : libebml v1.3.4 + libmatroska v1.4.5
    Видео
    Идентификатор : 1
    Формат : AVC
    Формат/Информация : Advanced Video Codec
    Профиль формата : High@L4
    Настройки формата : CABAC / 5 Ref Frames
    Параметр CABAC формата : Да
    Параметр RefFrames формата : 5 кадров
    Идентификатор кодека : V_MPEG4/ISO/AVC
    Продолжительность : 1 ч. 22 м.
    Битрейт : 4577 Кбит/сек
    Ширина : 1920 пикселей
    Высота : 804 пикселя
    Соотношение сторон : 2,40:1
    Режим частоты кадров : Постоянный
    Частота кадров : 25,000 кадров/сек
    Цветовое пространство : YUV
    Субдискретизация насыщенности : 4:2:0
    Битовая глубина : 8 бит
    Тип развёртки : Прогрессивная
    Бит/(Пиксели*Кадры) : 0.119
    Размер потока : 2,64 Гбайт (92%)
    Язык : Russian
    Default : Да
    Forced : Нет
    Цветовой диапазон : Limited
    Основные цвета : BT.709
    Характеристики трансфера : BT.709
    Коэффициенты матрицы : BT.709
    Аудио
    Идентификатор : 2
    Формат : AC-3
    Формат/Информация : Audio Coding 3
    Параметр Endianness формата : Big
    Идентификатор кодека : A_AC3
    Продолжительность : 1 ч. 22 м.
    Вид битрейта : Постоянный
    Битрейт : 384 Кбит/сек
    Каналы : 6 каналов
    Расположение каналов : Front: L C R, Side: L R, LFE
    Частота : 48,0 КГц
    Частота кадров : 31,250 кадров/сек (1536 SPF)
    Битовая глубина : 16 бит
    Метод сжатия : С потерями
    Размер потока : 226 Мбайт (8%)
    Язык : Russian
    Default : Да
    Forced : Нет
    Меню
    00:00:00.000 : en:Глава 1
    00:08:01.760 : en:Глава 2
    00:16:15.760 : en:Глава 3
    00:24:30.599 : en:Глава 4
    00:32:46.319 : en:Глава 5
    00:41:05.519 : en:Глава 6
    00:49:17.718 : en:Глава 7
    00:57:37.638 : en:Глава 8
    01:05:45.558 : en:Глава 9
    01:14:07.078 : en:Глава 10
    01:22:26.998 : en:Глава 1

    Скриншоты

    Показать сообщения:    
    Главная  Кинофильмы  Российские кинофильмы

    Текущее время: 26-Янв 01:33

    Часовой пояс: UTC + 5



    Вы не можете начинать темы
    Вы не можете отвечать на сообщения
    Вы не можете редактировать свои сообщения
    Вы не можете удалять свои сообщения
    Вы не можете голосовать в опросах
    Вы не можете прикреплять файлы к сообщениям
    Вы не можете скачивать файлы