Уважаемые гости сайта! Добро Пожаловать на наш торрент трекер,где Вы можете бесплатно скачать любой Софт,Фильмы,Музыку и многое другое! А так же постоянно ведется набор модераторов и релизеров. Зарегистрируйтесь сейчас, чтобы получить доступ ко всем функциям. После регистрации или входа на сайт вы сможете создавать темы, отвечать на сообщения и скачивать файлы.

Навигация по Торрент раздачам и Форум и Стол заказов и Группы

 Воздушный бой / Shadow in the Cloud (Роузэнн Лианг) [2020, Боевик, Ужасы, Военный, WEB-DLRip]

Главная  Кинофильмы  Зарубежные кинофильмы  Новинки (С рекламой)
Статистика раздачи
Нет
 
     
 
 
 
Автор Сообщение
  • kisel ®
  • Не в сети

    Автор темы

  • 7467
  • Пол: Мужской

  • Стаж: 3 месяца 18 дней

  • Сообщений: 26

  • Провайдер: UzOnline UzOnline

  • Карма: 0


  • Нет нарушения:

  • Награды: Нет
  • Создавать темы 03-Янв-2021 13:47

    Воздушный бой | Shadow in the Cloud
    Год выпуска: 2020
    Страна: Новая Зеландия, США
    Жанр: Боевик, Ужасы, Военный
    Продолжительность: 01.24.29
    Cубтитры: нет
    Перевод: Любительский (двухголосый закадровый)
    Режиссер: Роузэнн Лианг
    В ролях: Хлоя Грейс Морец, Ник Робинсон, Бела Коале, Тейлор Джон Смит, Каллэн Мулвей, Бенедикт Уолл, Байрон Колл, Джо Уитковски
    Описание: В разгар Второй мировой войны бомбардировщик B-17 «Летающая крепость» сопровождает груз под грифом «секретно». Команду возглавила молодая женщина – капитан Мод Гарднер, что вызвало скепсис у суровых бойцов. Едва поднявшись в воздух, экипаж вступает в бой с японскими истребителями, а на борту вынужден отражать внезапное нападение зловещего существа. Капитан Мод должна совершить невозможное – убедить команду в своей состоятельности, справиться с монстром и при этом сохранить тайну загадочного груза.
    Качество видео: WEB-DLRip
    Формат видео: AVI
    Видео кодек: XviD, 1920 Кбит/с, 720x304
    Аудио кодек: русский, любительский двухголосый закадровый (@MUZOBOZ@), AC3 2.0, 48 kHz, 384 kbps

    MediaInfo

    General
    Complete name : I:\Shadow.in.the.Cloud.2020.P.WEB-DLRip.14OOMB.avi
    Format : AVI
    Format/Info : Audio Video Interleave
    File size : 1.37 GiB
    Duration : 1 h 24 min
    Overall bit rate : 2 314 kb/s
    Writing application : VirtualDubMod 1.5.10.3 | www.virtualdub-fr.org || (build 2550/release)
    Writing library : VirtualDubMod build 2550/release
    Video
    ID : 0
    Format : MPEG-4 Visual
    Format profile : Advanced Simple@L5
    Format settings : BVOP2 / Custom Matrix
    Format settings, BVOP : 2
    Format settings, QPel : No
    Format settings, GMC : No warppoints
    Format settings, Matrix : Custom
    Codec ID : XVID
    Codec ID/Hint : XviD
    Duration : 1 h 24 min
    Bit rate : 1 921 kb/s
    Width : 720 pixels
    Height : 304 pixels
    Display aspect ratio : 2.35:1
    Frame rate : 23.976 (24000/1001) FPS
    Color space : YUV
    Chroma subsampling : 4:2:0
    Bit depth : 8 bits
    Scan type : Progressive
    Compression mode : Lossy
    Bits/(Pixel*Frame) : 0.366
    Stream size : 1.13 GiB (83%)
    Writing library : XviD 1.2.1 (UTC 2008-12-04)
    Audio
    ID : 1
    Format : AC-3
    Format/Info : Audio Coding 3
    Commercial name : Dolby Digital
    Codec ID : 2000
    Duration : 1 h 24 min
    Bit rate mode : Constant
    Bit rate : 384 kb/s
    Channel(s) : 2 channels
    Channel layout : L R
    Sampling rate : 48.0 kHz
    Frame rate : 31.250 FPS (1536 SPF)
    Compression mode : Lossy
    Stream size : 232 MiB (17%)
    Alignment : Split across interleaves
    Interleave, duration : 42 ms (1.00 video frame)
    Interleave, preload duration : 500 ms
    Service kind : Complete Main

    Скриншоты

    Показать сообщения:    
    Главная  Кинофильмы  Зарубежные кинофильмы  Новинки (С рекламой)

    Текущее время: 19-Апр 04:21

    Часовой пояс: UTC + 5



    Вы не можете начинать темы
    Вы не можете отвечать на сообщения
    Вы не можете редактировать свои сообщения
    Вы не можете удалять свои сообщения
    Вы не можете голосовать в опросах
    Вы не можете прикреплять файлы к сообщениям
    Вы не можете скачивать файлы