Уважаемые гости сайта! Добро Пожаловать на наш торрент трекер,где Вы можете бесплатно скачать любой Софт,Фильмы,Музыку и многое другое! А так же постоянно ведется набор модераторов и релизеров. Зарегистрируйтесь сейчас, чтобы получить доступ ко всем функциям. После регистрации или входа на сайт вы сможете создавать темы, отвечать на сообщения и скачивать файлы.

Навигация по Торрент раздачам и Форум и Стол заказов и Группы

 Звонок. Последняя глава / Sadako (Хидэо Наката) [2019,Ужасы, BDRip] DUB (iTunes)

Главная  Кинофильмы  Зарубежные кинофильмы
Статистика раздачи
Нет
 
     
 
 
 
Автор Сообщение
  • kisel ®
  • Не в сети

    Автор темы

  • 7467
  • Пол: Мужской

  • Стаж: 3 месяца 18 дней

  • Сообщений: 26

  • Провайдер: UzOnline UzOnline

  • Карма: 0


  • Нет нарушения:

  • Награды: Нет
  • Создавать темы 03-Янв-2021 12:03

    Информация о фильме
    Название: Звонок. Последняя глава
    Оригинальное название: Sadako
    Год выхода: 2019
    Жанр: Ужасы
    Режиссер: Хидэо Наката
    В ролях: Эридза Икэда, Такаси Цукамото, Хироя Симидзу, Химэка Химэдзима, Рэн Кирияма, Риэ Томосака, Хитоми Сато, Химэка Асами
    О фильме:
    Пытаясь убить собственную малолетнюю дочь, женщина устраивает в квартире поджог и сама погибает в пожаре. Через некоторое время девочку находят на улице и отправляют в больницу, где работает молодая психолог Маю Акикава. Полиции не удаётся разговорить маленькую пациентку, но Маю замечает, что та обладает психокинетическими способностями. А в это время младший брат Маю - видеоблогер, ведущий развлекательный канал - для увеличения количества просмотров отправляется в сгоревшую квартиру, где, по слухам, обитают призраки.


    Страна: Япония
    Студия: Kadokawa
    Продолжительность: 01:38:45
    Перевод: Профессиональный (полное дублирование) | iTunes
    Файл
    Качество: BDRip
    Формат: AVI
    Кодек: XviD
    Видео: 704x384 (1.85:1), 23, 976 fps, XviD ~ 1662 Kbps avg, 0.256 bit/pixel
    Аудио: AC3, 48 kHz, 6 ch, ~384.00 kbps avg | русский | iTunes
    Субтитры: Отсутствуют

    MediaInfo

    General
    Complete name : I:\Sadako.2019.BDRip.1.41Gb.avi
    Format : AVI
    Format/Info : Audio Video Interleave
    File size : 1.42 GiB
    Duration : 1 h 38 min
    Overall bit rate : 2 056 kb/s
    Movie name : Звонок. Последняя глава / Sadako (2019)
    Director : stillet@MegaPeer
    Genre : Ужасы
    Writing application : VirtualDubModRus 1.5.10.2 (build 2542/release)
    Writing library : VirtualDubMod build 2542/release
    Video
    ID : 0
    Format : MPEG-4 Visual
    Format profile : Advanced Simple@L5
    Format settings : BVOP1 / Custom Matrix
    Format settings, BVOP : 1
    Format settings, QPel : No
    Format settings, GMC : No warppoints
    Format settings, Matrix : Custom
    Codec ID : XVID
    Codec ID/Hint : XviD
    Duration : 1 h 38 min
    Bit rate : 1 662 kb/s
    Width : 704 pixels
    Height : 384 pixels
    Display aspect ratio : 1.85:1
    Frame rate : 23.976 (24000/1001) FPS
    Color space : YUV
    Chroma subsampling : 4:2:0
    Bit depth : 8 bits
    Scan type : Progressive
    Compression mode : Lossy
    Bits/(Pixel*Frame) : 0.256
    Stream size : 1.15 GiB (81%)
    Writing library : XviD 73
    Audio
    ID : 1
    Format : AC-3
    Format/Info : Audio Coding 3
    Commercial name : Dolby Digital
    Codec ID : 2000
    Duration : 1 h 38 min
    Bit rate mode : Constant
    Bit rate : 384 kb/s
    Channel(s) : 6 channels
    Channel layout : L R C LFE Ls Rs
    Sampling rate : 48.0 kHz
    Frame rate : 31.250 FPS (1536 SPF)
    Compression mode : Lossy
    Stream size : 271 MiB (19%)
    Alignment : Split across interleaves
    Interleave, duration : 42 ms (1.00 video frame)
    Interleave, preload duration : 500 ms
    Service kind : Complete Main

    Скриншоты

    Показать сообщения:    
    Главная  Кинофильмы  Зарубежные кинофильмы

    Текущее время: 19-Апр 05:34

    Часовой пояс: UTC + 5



    Вы не можете начинать темы
    Вы не можете отвечать на сообщения
    Вы не можете редактировать свои сообщения
    Вы не можете удалять свои сообщения
    Вы не можете голосовать в опросах
    Вы не можете прикреплять файлы к сообщениям
    Вы не можете скачивать файлы