Уважаемые гости сайта! Добро Пожаловать на наш торрент трекер,где Вы можете бесплатно скачать любой Софт,Фильмы,Музыку и многое другое! А так же постоянно ведется набор модераторов и релизеров. Зарегистрируйтесь сейчас, чтобы получить доступ ко всем функциям. После регистрации или входа на сайт вы сможете создавать темы, отвечать на сообщения и скачивать файлы.

Навигация по Торрент раздачам и Форум и Стол заказов и Группы

 Мажор. Фильм (Максим Полинский, Николай Булыгин) [2021, Боевик, комедия, WEBRip 1080p]

Главная  Кинофильмы  Российские кинофильмы
Статистика раздачи
Нет
Сегодня идет свободное скачивание без начисления Download
 
     
 
 
 
Автор Сообщение
  • kisel ®
  • Не в сети

    Автор темы

  • 7467
  • Пол: Мужской

  • Стаж: 26 дней

  • Сообщений: 26

  • Провайдер: UzOnline UzOnline

  • Карма: 0


  • Нет нарушения:

  • Награды: Нет
  • Создавать темы 03-Янв-2021 11:27

    Информация о фильме
    Название: Мажор. Фильм
    Год выхода: 2021
    Жанр: Боевик, комедия
    Страна: Россия
    Перевод: Не требуется
    Продолжительность: 01:38:05
    Режиссеры: Максим Полинский, Николай Булыгин
    В ролях: Павел Прилучный, Евгений Стычкин, Агния Дитковските, Дарина Эрвин, Даниил Воробьев, Владимир Селезнев, Дмитрий Шевченко, Александр Обласов, Игорь Жижикин, Павел Чинарёв и др.
    О фильме: Мажор виртуозно сбегает из тюрьмы и начинает новую жизнь. Новую сладкую жизнь! Соколовский вливается в светскую тусовку, где все сидят на новом синтетическом наркотике, и его снова окружают тачки, виллы и топ-модели. Друзья, враги и ФСБ идут по следу Мажора, пытаясь понять, какую игру он затеял и на чьей он стороне. Игорь же пытается понять, кто он сам — предатель, святой или всё тот же… Мажор?

    Файл
    Качество: WEBRip 1080p
    Видео: MPEG-4 AVC, 1920x1080, 5399 kbps, 24,000 fps
    Звук: русский, AC3, 2.0 ch, 48 kHz, 192 kbps
    Субтитры: русские (форс. вшитые, полные)

    MI

    Общее
    Уникальный идентификатор : 205805208655688276419325901642624230546 (0x9AD4A433306FE6DBA592063C7D816492)
    Полное имя : F:TorrentMazhorFilmWEBRip1080p.mkv
    Формат : Matroska
    Версия формата : Version 4 / Version 2
    Размер файла : 3,83 Гбайт
    Продолжительность : 1 ч. 38 м.
    Общий поток : 5593 Кбит/сек
    Дата кодирования : UTC 2021-01-02 04:46:55
    Программа кодирования : mkvmerge v9.5.0 ('Quiet Fire') 64bit
    Библиотека кодирования : libebml v1.3.4 + libmatroska v1.4.5
    Видео
    Идентификатор : 1
    Формат : AVC
    Формат/Информация : Advanced Video Codec
    Профиль формата : High@L4
    Настройки формата : CABAC / 4 Ref Frames
    Параметр CABAC формата : Да
    Параметр RefFrames формата : 4 кадра
    Идентификатор кодека : V_MPEG4/ISO/AVC
    Продолжительность : 1 ч. 38 м.
    Битрейт : 5399 Кбит/сек
    Ширина : 1920 пикселей
    Высота : 1080 пикселей
    Соотношение сторон : 16:9
    Режим частоты кадров : Постоянный
    Частота кадров : 24,000 кадра/сек
    Цветовое пространство : YUV
    Субдискретизация насыщенности : 4:2:0
    Битовая глубина : 8 бит
    Тип развёртки : Прогрессивная
    Бит/(Пиксели*Кадры) : 0.108
    Размер потока : 3,70 Гбайт (97%)
    Заголовок : rus
    Язык : Russian
    Default : Да
    Forced : Нет
    Цветовой диапазон : Limited
    Основные цвета : BT.709
    Характеристики трансфера : BT.709
    Коэффициенты матрицы : BT.709
    Аудио
    Идентификатор : 2
    Формат : AC-3
    Формат/Информация : Audio Coding 3
    Параметр Endianness формата : Big
    Идентификатор кодека : A_AC3
    Продолжительность : 1 ч. 38 м.
    Вид битрейта : Постоянный
    Битрейт : 192 Кбит/сек
    Каналы : 2 канала
    Расположение каналов : Front: L R
    Частота : 48,0 КГц
    Частота кадров : 31,250 кадров/сек (1536 SPF)
    Битовая глубина : 16 бит
    Метод сжатия : С потерями
    Размер потока : 135 Мбайт (3%)
    Заголовок : rus
    Язык : Russian
    Default : Да
    Forced : Нет
    Текст
    Идентификатор : 3
    Формат : UTF-8
    Идентификатор кодека : S_TEXT/UTF8
    Идентификатор кодека/Информация : UTF-8 Plain Text
    Продолжительность : 1 ч. 33 м.
    Битрейт : 86 бит/сек
    ElementCount : 1219
    Размер потока : 59,2 Кбайт (0%)
    Заголовок : rusFull
    Язык : Russian
    Default : Нет
    Forced : Нет

    Скриншоты

    Показать сообщения:    
    Главная  Кинофильмы  Российские кинофильмы

    Текущее время: 27-Янв 03:16

    Часовой пояс: UTC + 5



    Вы не можете начинать темы
    Вы не можете отвечать на сообщения
    Вы не можете редактировать свои сообщения
    Вы не можете удалять свои сообщения
    Вы не можете голосовать в опросах
    Вы не можете прикреплять файлы к сообщениям
    Вы не можете скачивать файлы