Уважаемые гости сайта! Добро Пожаловать на наш торрент трекер,где Вы можете бесплатно скачать любой Софт,Фильмы,Музыку и многое другое! А так же постоянно ведется набор модераторов и релизеров. Зарегистрируйтесь сейчас, чтобы получить доступ ко всем функциям. После регистрации или входа на сайт вы сможете создавать темы, отвечать на сообщения и скачивать файлы.

Навигация по Торрент раздачам и Форум и Стол заказов и Группы

 Мажор. Фильм (Максим Полинский, Николай Булыгин) [2021, Боевик, комедия, WEBRip]

Главная  Кинофильмы  Российские кинофильмы
Статистика раздачи
Нет
 
     
 
 
 
Автор Сообщение
  • kisel ®
  • Не в сети

    Автор темы

  • 7467
  • Пол: Мужской

  • Стаж: 3 месяца 18 дней

  • Сообщений: 26

  • Провайдер: UzOnline UzOnline

  • Карма: 0


  • Нет нарушения:

  • Награды: Нет
  • Создавать темы 03-Янв-2021 11:14

    Информация о фильме
    Название: Мажор. Фильм
    Год выхода: 2021
    Жанр: Боевик, комедия
    Режиссер: Максим Полинский, Николай Булыгин
    В ролях: Павел Прилучный, Евгений Стычкин, Агния Дитковските, Дарина Эрвин, Даниил Воробьев, Владимир Селезнев, Дмитрий Шевченко, Александр Обласов, Игорь Жижикин, Павел Чинарёв
    О фильме:
    Мажор виртуозно сбегает из тюрьмы и начинает новую жизнь. Новую сладкую жизнь! Соколовский вливается в светскую тусовку, где все сидят на новом синтетическом наркотике, и его снова окружают тачки, виллы и топ-модели. Друзья, враги и ФСБ идут по следу Мажора, пытаясь понять, какую игру он затеял и на чьей он стороне. Игорь же пытается понять, кто он сам — предатель, святой или всё тот же… Мажор?


    Страна: Россия
    Студия: Продюсерская компания «Среда»
    Продолжительность: 01:38:05
    Перевод: Не требуется
    Файл
    Качество: WEBRip
    Формат: AVI
    Кодек: XviD
    Видео: 720x304 (2.35:1), 24 fps, XviD, 1930 Кbps avg, 0.367 bit/pixel
    Аудио: AC3, 48 kHz, 2 ch, ~192.00 kbps avg | русский |
    Субтитры: Русские (форсированные) вшитые

    MediaInfo

    General
    Complete name : C:\TOR\Mazhor.Film.2021.WEBRip.avi
    Format : AVI
    Format/Info : Audio Video Interleave
    File size : 1.46 GiB
    Duration : 1 h 38 min
    Overall bit rate : 2 131 kb/s
    Writing application : VirtualDubModRus 1.5.10.2 (build 2542/release)
    Writing library : VirtualDubMod build 2542/release
    Video
    ID : 0
    Format : MPEG-4 Visual
    Format profile : Advanced Simple@L5
    Format settings : BVOP1 / Custom Matrix
    Format settings, BVOP : 1
    Format settings, QPel : No
    Format settings, GMC : No warppoints
    Format settings, Matrix : Custom
    Codec ID : XVID
    Codec ID/Hint : XviD
    Duration : 1 h 38 min
    Bit rate : 1 930 kb/s
    Width : 720 pixels
    Height : 304 pixels
    Display aspect ratio : 2.35:1
    Frame rate : 24.000 FPS
    Color space : YUV
    Chroma subsampling : 4:2:0
    Bit depth : 8 bits
    Scan type : Progressive
    Compression mode : Lossy
    Bits/(Pixel*Frame) : 0.367
    Stream size : 1.32 GiB (91%)
    Writing library : XviD 73
    Audio
    ID : 1
    Format : AC-3
    Format/Info : Audio Coding 3
    Commercial name : Dolby Digital
    Codec ID : 2000
    Duration : 1 h 38 min
    Bit rate mode : Constant
    Bit rate : 192 kb/s
    Channel(s) : 2 channels
    Channel layout : L R
    Sampling rate : 48.0 kHz
    Frame rate : 31.250 FPS (1536 SPF)
    Compression mode : Lossy
    Stream size : 135 MiB (9%)
    Alignment : Split across interleaves
    Interleave, duration : 42 ms (1.00 video frame)
    Interleave, preload duration : 500 ms
    Service kind : Complete Main

    Скриншоты

    Показать сообщения:    
    Главная  Кинофильмы  Российские кинофильмы

    Текущее время: 19-Апр 04:48

    Часовой пояс: UTC + 5



    Вы не можете начинать темы
    Вы не можете отвечать на сообщения
    Вы не можете редактировать свои сообщения
    Вы не можете удалять свои сообщения
    Вы не можете голосовать в опросах
    Вы не можете прикреплять файлы к сообщениям
    Вы не можете скачивать файлы