Уважаемые гости сайта! Добро Пожаловать на наш торрент трекер,где Вы можете бесплатно скачать любой Софт,Фильмы,Музыку и многое другое! А так же постоянно ведется набор модераторов и релизеров. Зарегистрируйтесь сейчас, чтобы получить доступ ко всем функциям. После регистрации или входа на сайт вы сможете создавать темы, отвечать на сообщения и скачивать файлы.

Навигация по Торрент раздачам и Форум и Стол заказов и Группы

 Без комплексов / Chamboultout (Эрик Лавэн) [2019,Комедия,BDRip] MVO (iTunes)

Главная  Кинофильмы  Зарубежные кинофильмы
Статистика раздачи
Нет
Сегодня идет свободное скачивание без начисления Download
 
     
 
 
 
Автор Сообщение
  • kisel ®
  • Не в сети

    Автор темы

  • 7467
  • Пол: Мужской

  • Стаж: 25 дней

  • Сообщений: 26

  • Провайдер: UzOnline UzOnline

  • Карма: 0


  • Нет нарушения:

  • Награды: Нет
  • Создавать темы 03-Янв-2021 02:03

    Информация о фильме
    Название: Без комплексов
    Оригинальное название: Chamboultout
    Год выхода: 2019
    Жанр: Комедия
    Режиссер: Эрик Лавэн
    В ролях: Александра Лами, Хосе Гарсия, Микаэль Юн, Энн Маривин, Меди Садун, Мишель Вюйермоз, Оливия Коте, Энн Жирар, Жан Франсуа Кэйри, Людивин де Шасне
    О фильме:
    Беатрис написала книгу о трагическом событии в семье: ее муж, Фредерик, попал в аварию. Он ослеп и, как бы, лишился фильтра: говорит все, что думает, и абсолютно непредсказуем. Тем временем все друзья семьи выискивают себя среди персонажей романа, и старые конфликты пробуждаются.


    Страна: Франция, Бельгия
    Студия: Canal+ [fr], Centre National de la Cinématographie (CNC), Ciné, Entourage Pictures, Gaumont
    Продолжительность: 01:41:22
    Перевод: Профессиональный (многоголосый, закадровый) | iTunes
    Файл
    Качество: BDRip
    Формат: AVI
    Кодек: XviD
    Видео: 720x304 (2.35:1), 23,976 fps, XviD ~ 1605 Kbps avg, 0.306 bit/pixel
    Аудио: AC3, 48 kHz, 6 ch, ~384.00 kbps avg | русский | iTunes
    Субтитры: Отсутствуют

    MediaInfo

    General
    Complete name : C:\TOR\Chamboultout.2019.BDRip.avi
    Format : AVI
    Format/Info : Audio Video Interleave
    File size : 1.41 GiB
    Duration : 1 h 41 min
    Overall bit rate : 1 998 kb/s
    Movie name : Без комплексов / Chamboultout (2019)
    Director : stillet@MegaPeer
    Genre : Комедия
    Writing application : VirtualDubModRus 1.5.10.2 (build 2542/release)
    Writing library : VirtualDubMod build 2542/release
    Video
    ID : 0
    Format : MPEG-4 Visual
    Format profile : Advanced Simple@L5
    Format settings : BVOP1 / Custom Matrix
    Format settings, BVOP : 1
    Format settings, QPel : No
    Format settings, GMC : No warppoints
    Format settings, Matrix : Custom
    Codec ID : XVID
    Codec ID/Hint : XviD
    Duration : 1 h 41 min
    Bit rate : 1 605 kb/s
    Width : 720 pixels
    Height : 304 pixels
    Display aspect ratio : 2.35:1
    Frame rate : 23.976 (24000/1001) FPS
    Color space : YUV
    Chroma subsampling : 4:2:0
    Bit depth : 8 bits
    Scan type : Progressive
    Compression mode : Lossy
    Bits/(Pixel*Frame) : 0.306
    Stream size : 1.14 GiB (80%)
    Writing library : XviD 73
    Audio
    ID : 1
    Format : AC-3
    Format/Info : Audio Coding 3
    Commercial name : Dolby Digital
    Codec ID : 2000
    Duration : 1 h 41 min
    Bit rate mode : Constant
    Bit rate : 384 kb/s
    Channel(s) : 6 channels
    Channel layout : L R C LFE Ls Rs
    Sampling rate : 48.0 kHz
    Frame rate : 31.250 FPS (1536 SPF)
    Compression mode : Lossy
    Stream size : 278 MiB (19%)
    Alignment : Split across interleaves
    Interleave, duration : 42 ms (1.00 video frame)
    Interleave, preload duration : 500 ms
    Service kind : Complete Main

    Скриншоты

    Показать сообщения:    
    Главная  Кинофильмы  Зарубежные кинофильмы

    Текущее время: 26-Янв 00:53

    Часовой пояс: UTC + 5



    Вы не можете начинать темы
    Вы не можете отвечать на сообщения
    Вы не можете редактировать свои сообщения
    Вы не можете удалять свои сообщения
    Вы не можете голосовать в опросах
    Вы не можете прикреплять файлы к сообщениям
    Вы не можете скачивать файлы